Tags
Language
Tags

Roger Miller - Roger Miller 1970 (1969/2022) [Official Digital Download 24/96]

Posted By: pyatak
Roger Miller - Roger Miller 1970 (1969/2022) [Official Digital Download 24/96]

Roger Miller - Roger Miller 1970 (1969/2022) [Official Digital Download 24/96]
FLAC (tracks) 24-bit/96 kHz | Front Cover | Time - 29:47 minutes | 655 MB
Country | Studio Master, Official Digital Download

MCA Nashville presents Roger Miller's 1969 album Roger Miller 1970 as part of a series of exciting new re-releases from the beloved Country star!

Over the course of his wildly successful four-decade long career, Country Music Hall of Famer, Roger Miller, recorded and released hundreds of songs across 19 studio albums, including a remarkable 52 singles. Best known for his chart-topping hits "King of the Road," "Dang Me," "Chug-A-Lug" and "England Swings" from the mid-1960s Nashville sound era, Miller released his debut album, Roger And Out, in 1964 on Smash Records after several years of playing with, and becoming a hit songwriter for country greats like George Jones, Jimmy Dean, Ray Price, Ernest Tubb, and Faron Young, along with releasing a dozen singles of his own. On the strength of the back-to-back hits "Dang Me" and "Chug-A-Lug," the album was a smash and set the stage for a peerless career that included 11 Grammy Awards, two Tony Awards, Academy of Country Music's Pioneer Award, multiple hit records, several movie soundtracks, a television show, induction into Nashville Songwriters Hall of Fame, and so much more.

TRACKLIST

1. Roger Miller - The Tom Green County Fair
2. Roger Miller - Precious Baby
3. Roger Miller - The Man Who Stayed In Monterey
4. Roger Miller - Jody And The Kid
5. Roger Miller - Mystery Train
6. Roger Miller - I Know Who It Is (And I'm Gonna Tell On 'Em)
7. Roger Miller - All Fall Down
8. Roger Miller - Everybody's Talkin'
9. Roger Miller - The Fool
10. Roger Miller - T.J.'s Last Ride
11. Roger Miller - Crystal Day

foobar2000 1.6.2 / Dynamic Range Meter 1.1.1
log date: 2022-06-26 11:04:26

––––––––––––––––––––––––––––––––––––––––
Analyzed: Roger Miller / Roger Miller 1970
––––––––––––––––––––––––––––––––––––––––

DR Peak RMS Duration Track
––––––––––––––––––––––––––––––––––––––––
DR10 -0.22 dB -12.28 dB 2:29 01-The Tom Green County Fair
DR10 -0.22 dB -11.73 dB 3:21 02-Precious Baby
DR10 -0.22 dB -12.03 dB 2:50 03-The Man Who Stayed In Monterey
DR11 -0.22 dB -12.32 dB 3:06 04-Jody And The Kid
DR11 -0.22 dB -12.36 dB 2:31 05-Mystery Train
DR11 -0.22 dB -12.73 dB 2:08 06-I Know Who It Is (And I'm Gonna Tell On 'Em)
DR10 -0.22 dB -11.84 dB 3:03 07-All Fall Down
DR9 -0.22 dB -11.28 dB 2:23 08-Everybody's Talkin'
DR12 -0.22 dB -14.04 dB 2:40 09-The Fool
DR10 -0.22 dB -11.62 dB 3:04 10-T.J.'s Last Ride
DR11 -0.22 dB -13.00 dB 2:15 11-Crystal Day
––––––––––––––––––––––––––––––––––––––––

Number of tracks: 11
Official DR value: DR10

Samplerate: 96000 Hz
Channels: 2
Bits per sample: 24
Bitrate: 3104 kbps
Codec: FLAC
================================================================================



Thanks to the Original customer.