Rudolf Lutz - 9. Sinfonie in D-Moll, Op. 125 (Live) (2020) [Official Digital Download]

Posted By: pyatak
Rudolf Lutz - 9. Sinfonie in D-Moll, Op. 125 (Live) (2020) [Official Digital Download]

Rudolf Lutz - 9. Sinfonie in D-Moll, Op. 125 (Live) (2020) [Official Digital Download]
FLAC (tracks) 24-bit/44.1 kHz | Front Cover | Time - 61:10 minutes | 574 MB
Classical | Label: J.S. Bach-Stiftung, Official Digital Download

When we reflect on the historical context of Bach’s music, we find ourselves in the era shortly before the dawn of the Enlightenment. To be sure, Bach’s musical genius renders the intellectual cage golden – but a cage remains a cage. We at the Bach Foundation, as heirs of the Enlightenment, had a natural desire to break free from such constraints – to let our choir, orchestra and outstanding soloists perform something different for a change! In 2013, this wish, long harboured by Rudolf Lutz, the artistic director of the Foundation, and me, its founder, was fulfilled.

Rudolf Lutz and I had been the creative duo behind the “Wort & Klang” concert cycle of the St Gallen bank Wegelin & Co. for twenty years when, in 2013, we had the opportunity to create a special edition. (Although the bank had a new name after being sold in 2012, it remained dedicated to its cultural commitments). As the overarching theme we chose “The Age(s!) of Enlightenment”, and between August and October of 2013, we performed Beethoven’s ninth symphony in nine cities throughout Switzerland, appearing in all the renowned concert halls: the Stadtcasino in Basel, the Victoria Hall in Geneva, the KKL in Lucerne and the Tonhalle in Zurich – mostly to standing ovations. This performance, which was recorded at the Tonhalle in Zurich, resurfaced in our archives in 2020, the 250th anniversary of Beethoven’s birth. Its rediscovery inspired us to release the recording on CD, because as energetic, transparent and empathetic as our Bach interpretations are, so too is our rendition of Beethoven.

Our aim was to present Beethoven’s ninth symphony, a popular work that is perhaps performed too often, in its proper historical and intellectual context – and thus offer concertgoers a deeper experience of the work.

TRACKLIST

1. Rudolf Lutz - 9. Sinfonie in D-Moll, Op. 125: I. Allegro ma non troppo e un poco maestoso (Live)
2. Rudolf Lutz - 9. Sinfonie in D-Moll, Op. 125: II. Molto vivace - Presto (Live)
3. Rudolf Lutz - 9. Sinfonie in D-Moll, Op. 125: III. Adagio molto e cantabile - Andante moderato (Live)
4. Rudolf Lutz - 9. Sinfonie in D-Moll, Op. 125: IV. Presto - «O Freunde, nicht diese Töne!» (Ode «An die Freude») (Live)

foobar2000 1.6.2 / Dynamic Range Meter 1.1.1
log date: 2020-12-15 17:40:27

––––––––––––––––––––––––––––––––––––––––
Analyzed: Rudolf Lutz / 9. Sinfonie in D-Moll, Op. 125 (Live)
––––––––––––––––––––––––––––––––––––––––

DR Peak RMS Duration Track
––––––––––––––––––––––––––––––––––––––––
DR15 -1.12 dB -21.11 dB 13:29 01-9. Sinfonie in D-Moll, Op. 125: I. Allegro ma non troppo e un poco maestoso (Live)
DR15 -1.81 dB -22.60 dB 13:19 02-9. Sinfonie in D-Moll, Op. 125: II. Molto vivace - Presto (Live)
DR16 -5.10 dB -27.18 dB 11:56 03-9. Sinfonie in D-Moll, Op. 125: III. Adagio molto e cantabile - Andante moderato (Live)
DR11 -1.11 dB -16.88 dB 22:29 04-9. Sinfonie in D-Moll, Op. 125: IV. Presto - «O Freunde, nicht diese Töne!» (Ode «An die Freude») (Live)
––––––––––––––––––––––––––––––––––––––––

Number of tracks: 4
Official DR value: DR14

Samplerate: 44100 Hz
Channels: 2
Bits per sample: 24
Bitrate: 1361 kbps
Codec: FLAC
================================================================================



Thanks to the Original customer.