Tags
Language
Tags

Sammy Davis, Jr. - Porgy And Bess (1959/2021) [Official Digital Download 24/96]

Posted By: pyatak
Sammy Davis, Jr. - Porgy And Bess (1959/2021) [Official Digital Download 24/96]

Sammy Davis, Jr. - Porgy And Bess (1959/2021) [Official Digital Download 24/96]
FLAC (tracks) 24-bit/96 kHz | Front Cover | Time - 40:02 minutes | 628 MB
Jazz | Label: Decca, Official Digital Download

Porgy and Bess is a 1959 album by Sammy Davis Jr. of selections from George Gershwin's opera Porgy and Bess co-starring Carmen McRae. Davis is accompanied by orchestras conducted by Buddy Bregman and Morty Stevens, sometimes supported by the Bill Thompson singers. McRae is featured on three of the ten songs, "Summertime", "My Man's Gone Now" and the only duet, "I Loves You, Porgy", all three backed by an orchestra directed by Jack Pleis. "The record is piled to the sky with strings, harps, choruses, and pillowy orchestration," writes Tim Sendra on Allmusic, but "credit[s] Sammy and Carmen for holding up their end of the deal."

TRACKLIST

1. Sammy Davis, Jr. - Summertime (Remastered)
2. Sammy Davis, Jr. - A Woman Is A Sometime Thing (Remastered)
3. Sammy Davis, Jr. - My Man's Gone Now (Remastered)
4. Sammy Davis, Jr. - I Got Plenty O' Nuttin' (Remastered)
5. Sammy Davis, Jr. - Bess You Is My Woman (Remastered)
6. Sammy Davis, Jr. - It Ain't Necessarily So (Remastered)
7. Sammy Davis, Jr. - I Loves You Porgy! (Remastered)
8. Sammy Davis, Jr. - There's A Boat Dat's Leavin' Soon For New York (Remastered)
9. Sammy Davis, Jr. - Oh Bess, Oh Where's My Bess? (Remastered)
10. Sammy Davis, Jr. - Oh Lawd, I'm On My Way (Remastered)

foobar2000 1.6.2 / Dynamic Range Meter 1.1.1
log date: 2021-08-09 21:41:31

––––––––––––––––––––––––––––––––––––––––
Analyzed: Sammy Davis, Jr. / Porgy And Bess
––––––––––––––––––––––––––––––––––––––––

DR Peak RMS Duration Track
––––––––––––––––––––––––––––––––––––––––
DR12 -3.24 dB -18.11 dB 3:14 01-Summertime (Remastered)
DR12 -1.39 dB -17.32 dB 4:00 02-A Woman Is A Sometime Thing (Remastered)
DR11 -3.51 dB -18.35 dB 4:38 03-My Man's Gone Now (Remastered)
DR13 -0.40 dB -18.41 dB 3:45 04-I Got Plenty O' Nuttin' (Remastered)
DR11 -2.62 dB -18.51 dB 5:14 05-Bess You Is My Woman (Remastered)
DR13 -0.43 dB -17.85 dB 4:13 06-It Ain't Necessarily So (Remastered)
DR12 -3.66 dB -19.32 dB 4:06 07-I Loves You Porgy! (Remastered)
DR12 -0.37 dB -17.27 dB 4:19 08-There's A Boat Dat's Leavin' Soon For New York (Remastered)
DR12 -2.97 dB -19.23 dB 3:44 09-Oh Bess, Oh Where's My Bess? (Remastered)
DR11 -0.34 dB -17.05 dB 2:55 10-Oh Lawd, I'm On My Way (Remastered)
––––––––––––––––––––––––––––––––––––––––

Number of tracks: 10
Official DR value: DR12

Samplerate: 96000 Hz
Channels: 2
Bits per sample: 24
Bitrate: 2189 kbps
Codec: FLAC
================================================================================



Thanks to the Original customer.