Tags
Language
Tags

Sasha Miller - Musique De La Vie (2021) [Official Digital Download]

Posted By: pyatak
Sasha Miller - Musique De La Vie (2021) [Official Digital Download]

Sasha Miller - Musique De La Vie (2021) [Official Digital Download]
FLAC (tracks) 24-bit/44.1 kHz | Front Cover | Time - 26:45 minutes | 267 MB
Jazz | Label: Blue Note, Official Digital Download

Sasha Miller is the pseudonym of American fantasy writer Georgia Myrle Miller (born October 15, 1933 in Erick, Oklahoma). She has also written under the names Georgia Sallaska, Myrle Benedict, and G. S. Madden.

In 1958 and 1959 she published a trio of stories in Fantastic Universe as Myrle Benedict: "Sit by the Fire", "The Dancing that We Did", and "The Comanleigh". Fantastic editor Hans Stefan Santesson included "Sit by the Fire" in his best of anthology The Fantastic Universe Omnibus (1960).[3]:370 As Georgia Sallaska, she wrote three novels of historical fiction: Three Ships and Three Kings (1969), The Last Heracles (1971), and Priam's Daughter (1974).

In the 1980s she began publishing as Sasha Miller. She wrote a number of works set in Andre Norton's Witch World, including GURPS Witch World (1989) with Ben W. Miller, a rule book for the GURPS role-playing game system, and the novel Falcon Magic (1994), published in the On Wings of Magic omnibus. She also collaborated with Norton on the five novels in the Cycle of Oak, Yew, Ash, and Rowan series. Miller's fantasy novel Ladylord (1995), set in medieval Japan, was praised by reviewers.

TRACKLIST

01. Sasha Miller - Arrivé À Votre Destination
02. Sasha Miller - Dans Les Rues De Toulouse
03. Sasha Miller - Du Jazz Dans Mes Veines
04. Sasha Miller - Fils De La Nuit
05. Sasha Miller - Guide Sans Objectif
06. Sasha Miller - Je Veux Arrêter Le Temps
07. Sasha Miller - L'essence De La Vie
08. Sasha Miller - La Vie Est Un Voyage
09. Sasha Miller - Les Étoiles Qui Me Guident
10. Sasha Miller - Musique De La Vie


foobar2000 1.6.2 / Dynamic Range Meter 1.1.1
log date: 2021-07-30 12:38:09

––––––––––––––––––––––––––––––––––––––––
Analyzed: Sasha Miller / Musique De La Vie
––––––––––––––––––––––––––––––––––––––––

DR Peak RMS Duration Track
––––––––––––––––––––––––––––––––––––––––
DR16 -1.09 dB -19.98 dB 2:08 01-Arrivé À Votre Destination
DR12 -4.83 dB -19.36 dB 3:12 02-Dans Les Rues De Toulouse
DR14 -2.26 dB -18.23 dB 3:33 03-Du Jazz Dans Mes Veines
DR15 -3.66 dB -22.26 dB 2:11 04-Fils De La Nuit
DR13 -3.97 dB -18.57 dB 2:28 05-Guide Sans Objectif
DR12 -3.49 dB -17.65 dB 1:52 06-Je Veux Arrêter Le Temps
DR13 -0.41 dB -15.48 dB 1:47 07-L'essence De La Vie
DR15 0.00 dB -17.70 dB 2:51 08-La Vie Est Un Voyage
DR12 -4.42 dB -18.56 dB 2:43 09-Les Étoiles Qui Me Guident
DR14 0.00 dB -15.61 dB 4:05 10-Musique De La Vie
––––––––––––––––––––––––––––––––––––––––

Number of tracks: 10
Official DR value: DR14

Samplerate: 44100 Hz
Channels: 2
Bits per sample: 24
Bitrate: 1475 kbps
Codec: FLAC
================================================================================



Thanks to the Original customer.