Llyr Williams - Llŷr Williams: Schubert, Vol. 4 (2019) [Official Digital Download 24/96]

Posted By: SERTiL
Llyr Williams - Llŷr Williams: Schubert, Vol. 4 (2019) [Official Digital Download 24/96]

Llyr Williams - Llŷr Williams: Schubert, Vol. 4 (2019)
FLAC (tracks) 24-bit/96 kHz | Time - 64:11 minutes | 1.02 GB
Studio Master, Official Digital Download | Artwork: Digital Booklet

Schubert's two sets of impromptus, the second arguably a sonata in all but name, date from 1827, the year before the composer's death. These lovely performances were recorded live in Cardiff in 2018.

Tracklist:
1. Impromptu, Op. 90, D 899: I. Allegro molto moderato (10:03)
2. Impromptu, Op. 90, D 899: II. Allegro (4:51)
3. Impromptu, Op. 90, D 899: III. Andante (6:35)
4. Impromptu, Op. 90, D 899: IV. Allegretto (8:08)
5. Impromptu, Op. post. 142, D. 935: I. Allegro moderato (9:37)
6. Impromptu, Op. post. 142, D. 935: II. Allegretto (6:22)
7. Impromptu, Op. post. 142, D. 935: III. Andante (12:05)
8. Impromptu, Op. post. 142, D. 935: IV. Allegro scherzando (6:34)

foobar2000 1.3.7 / Dynamic Range Meter 1.1.1
log date: 2019-12-13 12:35:49

––––––––––––––––––––––––––––––––––––––––
Analyzed: Llyr Williams / Llŷr Williams: Schubert, Vol. 4
––––––––––––––––––––––––––––––––––––––––

DR Peak RMS Duration Track
––––––––––––––––––––––––––––––––––––––––
DR14 -0.20 dB -19.83 dB 10:03 01-Impromptu, Op. 90, D 899: I. Allegro molto moderato
DR13 -0.16 dB -18.05 dB 4:51 02-Impromptu, Op. 90, D 899: II. Allegro
DR13 -2.77 dB -22.02 dB 6:35 03-Impromptu, Op. 90, D 899: III. Andante
DR13 -0.16 dB -18.94 dB 8:08 04-Impromptu, Op. 90, D 899: IV. Allegretto
DR14 -0.54 dB -21.23 dB 9:37 05-Impromptu, Op. post. 142, D. 935: I. Allegro moderato
DR16 -0.38 dB -22.28 dB 6:22 06-Impromptu, Op. post. 142, D. 935: II. Allegretto
DR14 -2.28 dB -21.75 dB 12:05 07-Impromptu, Op. post. 142, D. 935: III. Andante
DR15 -0.16 dB -19.69 dB 6:34 08-Impromptu, Op. post. 142, D. 935: IV. Allegro scherzando
––––––––––––––––––––––––––––––––––––––––

Number of tracks: 8
Official DR value: DR14

Samplerate: 96000 Hz
Channels: 2
Bits per sample: 24
Bitrate: 2348 kbps
Codec: FLAC
================================================================================


Thanks to the Original customer.