Tags
Language
Tags
January 2023
Su Mo Tu We Th Fr Sa
1 2 3 4 5 6 7
8 9 10 11 12 13 14
15 16 17 18 19 20 21
22 23 24 25 26 27 28
29 30 31 1 2 3 4

Andrei Korobeinikov - Scriabine: Complete etudes (2014) [Official Digital Download]

Posted By: SERTiL
Andrei Korobeinikov - Scriabine: Complete etudes (2014) [Official Digital Download]

Andrei Korobeinikov - Scriabine: Complete etudes (2014)
FLAC (tracks) 24-bit/44.1 kHz | Time - 70:47 minutes | 553 MB
Studio Master, Official Digital Download | Artwork: Digital Booklet

Grouped together in a number of collections, Scriabin's Études mark out each stage of his life and display both his technical relationship to the keyboard and the evolution of his harmonic language, from the influence of Chopin to atonalism. The seventh of his ten sonatas, entitled Messe blanche, is a high point of his entire output, looking far ahead into the sound world of the 20th century.

“This new recording…sets Korobeinikov’s gifts as a Scriabin interpreter in bold relief. Each of the Etudes and the Seventh Sonata emerges as a self-contained microcosm, so vividly portrayed that, even after repeated listening, new details emerge … As Scriabin’s harmonic language progresses, so it seems does the intensity of Korobeinikov’s enthusiasm.” (International Record Review)

Tracklist:

Alexander Nikolayevich Scriabin (1872-1915)

01. Etude en Ut Dièse Mineur No. 1, Op. 2
02. Douze études, Op. 8, étude No. 1 en Do Dièse Majeur: Allegro
03. Douze études, Op. 8, étude No. 2 en Fa Dièse Mineur: A cappricio, con forza
04. Douze études, Op. 8, étude No. 3 en Si Mineur: Tempestoso
05. Douze études, Op. 8, étude No. 4 en Si Majeur: Piacevole
06. Douze études, Op. 8, étude No. 5 en Mi Majeur: Brioso
07. Douze études, Op. 8, étude No. 6 en La Majeur: Con Grazia
08. Douze études, Op. 8, étude No. 7 en Si Bémol Majeur: Presto tenebroso
09. Douze études, Op. 8, étude No. 8 en La Bémol Majeur: Lento
10. Douze études, Op. 8, étude No. 9 en Sol Dièse Mineur: Alla ballata
11. Douze études, Op. 8, étude No. 10 en Ré Bémol Majeur: Allegro
12. Douze études, Op. 8, étude No. 11 en Si Bémol Mineur: Andante cantabile
13. Douze études, Op. 8, étude No. 12 en Ré Dièse Mineur: Patetico
14. Huit études, Op. 42, étude No. 1 en Ré Bémol Majeur: Presto
15. Huit études, Op. 42, étude No. 2 en Fa Dièse Mineur
16. Huit études, Op. 42, étude No. 3 en Fa Dièse Majeur: Prestissimo
17. Huit études, Op. 42, étude No. 4 en Fa Dièse Majeur: Andante
18. Huit études, Op. 42, étude No. 5 en Ut Dièse Mineur: Affanato
19. Huit études, Op. 42, étude No. 6 en Ré Bémol Majeur: Esaltato
20. Huit études, Op. 42, étude No. 7 en Fa Mineur: Agitato
21. Huit études, Op. 42, étude No. 8 en Mi Bémol Majeur: Allegro
22. Etude No. 1, Op. 49
23. Etude No. 4, Op. 56
24. Etudes, Op. 65, étude No. 1: Allegro fantastico
25. Etudes, Op. 65, étude No. 2: Allegretto
26. Etudes, Op. 65, étude No. 3: Molto vivace
27. Sonate No. 7, Op. 64 «Messe Blanche»

Personnel:
Andrei Korobeinikov, piano

foobar2000 1.3.7 / Dynamic Range Meter 1.1.1
log date: 2018-03-17 18:04:49

––––––––––––––––––––––––––––––––––––––––
Analyzed: Andrei Korobeinikov / Classical, Piano
––––––––––––––––––––––––––––––––––––––––

DR Peak RMS Duration Track
––––––––––––––––––––––––––––––––––––––––
DR12 -8.59 dB -27.85 dB 3:15 01-Etude en Ut Dièse Mineur No. 1, Op. 2
DR11 -5.17 dB -21.87 dB 1:38 02-Douze études, Op. 8, étude No. 1 en Do Dièse Majeur: Allegro
DR10 -5.18 dB -20.08 dB 1:34 03-Douze études, Op. 8, étude No. 2 en Fa Dièse Mineur: A cappricio, con forza
DR11 -4.42 dB -20.33 dB 1:58 04-Douze études, Op. 8, étude No. 3 en Si Mineur: Tempestoso
DR11 -11.37 dB -27.36 dB 1:33 05-Douze études, Op. 8, étude No. 4 en Si Majeur: Piacevole
DR12 -7.37 dB -24.48 dB 2:56 06-Douze études, Op. 8, étude No. 5 en Mi Majeur: Brioso
DR11 -8.86 dB -24.87 dB 2:00 07-Douze études, Op. 8, étude No. 6 en La Majeur: Con Grazia
DR11 -6.74 dB -23.34 dB 1:54 08-Douze études, Op. 8, étude No. 7 en Si Bémol Majeur: Presto tenebroso
DR12 -12.97 dB -31.54 dB 3:44 09-Douze études, Op. 8, étude No. 8 en La Bémol Majeur: Lento
DR13 -1.39 dB -19.32 dB 4:46 10-Douze études, Op. 8, étude No. 9 en Sol Dièse Mineur: Alla ballata
DR11 -5.88 dB -22.15 dB 1:59 11-Douze études, Op. 8, étude No. 10 en Ré Bémol Majeur: Allegro
DR13 -13.21 dB -30.96 dB 4:49 12-Douze études, Op. 8, étude No. 11 en Si Bémol Mineur: Andante cantabile
DR11 -1.68 dB -15.89 dB 2:06 13-Douze études, Op. 8, étude No. 12 en Ré Dièse Mineur: Patetico
DR11 -5.41 dB -21.00 dB 1:59 14-Huit études, Op. 42, étude No. 1 en Ré Bémol Majeur: Presto
DR11 -12.20 dB -29.84 dB 1:02 15-Huit études, Op. 42, étude No. 2 en Fa Dièse Mineur
DR12 -13.82 dB -29.95 dB 1:04 16-Huit études, Op. 42, étude No. 3 en Fa Dièse Majeur: Prestissimo
DR13 -11.53 dB -30.72 dB 2:47 17-Huit études, Op. 42, étude No. 4 en Fa Dièse Majeur: Andante
DR11 -1.53 dB -18.79 dB 3:02 18-Huit études, Op. 42, étude No. 5 en Ut Dièse Mineur: Affanato
DR11 -7.23 dB -21.26 dB 1:45 19-Huit études, Op. 42, étude No. 6 en Ré Bémol Majeur: Esaltato
DR11 -8.42 dB -24.34 dB 1:04 20-Huit études, Op. 42, étude No. 7 en Fa Mineur: Agitato
DR13 -6.94 dB -25.80 dB 2:44 21-Huit études, Op. 42, étude No. 8 en Mi Bémol Majeur: Allegro
DR12 -7.22 dB -25.29 dB 0:32 22-Etude No. 1, Op. 49
DR14 -4.30 dB -24.68 dB 0:29 23-Etude No. 4, Op. 56
DR15 -6.64 dB -26.82 dB 3:36 24-Etudes, Op. 65, étude No. 1: Allegro fantastico
DR13 -11.52 dB -32.33 dB 2:06 25-Etudes, Op. 65, étude No. 2: Allegretto
DR12 -0.83 dB -16.61 dB 1:47 26-Etudes, Op. 65, étude No. 3: Molto vivace
DR14 -0.82 dB -21.11 dB 12:48 27-Sonate No. 7, Op. 64 «Messe Blanche»
––––––––––––––––––––––––––––––––––––––––

Number of tracks: 27
Official DR value: DR12

Samplerate: 44100 Hz
Channels: 2
Bits per sample: 24
Bitrate: 1097 kbps
Codec: FLAC
================================================================================


Thanks to the Original customer.