Tags
Language
Tags

Shorty Rogers - The Wizard Of Oz & Other Harold Arlen Songs (1959/2021) [Official Digital Download 24/96]

Posted By: pyatak
Shorty Rogers - The Wizard Of Oz & Other Harold Arlen Songs (1959/2021) [Official Digital Download 24/96]

Shorty Rogers - The Wizard Of Oz & Other Harold Arlen Songs (1959/2021) [Official Digital Download 24/96]
FLAC (tracks) 24-bit/96 kHz | Front Cover | Time - 41:01 minutes | 840 MB
Jazz | Label: RCA Victor, Official Digital Download

The Wizard of Oz and Other Harold Arlen Songs is an album by American jazz trumpeter and arranger Shorty Rogers performing songs composed by Harold Arlen including several from The Wizard of Oz. The album was issued by RCA Victor in 1959.

TRACKLIST

1. Shorty Rogers - We're Off To See The Wizard (Remastered)
2. Shorty Rogers - Over the Rainbow (Remastered)
3. Shorty Rogers - The Jitterbug (Remastered)
4. Shorty Rogers - The Merry Old Land Of Oz (Remastered)
5. Shorty Rogers - If I Only Had A Brain (Remastered)
6. Shorty Rogers - Ding Dong! The Witch Is Dead! (Remastered)
7. Shorty Rogers - My Shining Hour (Remastered)
8. Shorty Rogers - Get Happy! (Remastered)
9. Shorty Rogers - Blues In The Night (Remastered)
10. Shorty Rogers - Let's Fall In Love (Remastered)
11. Shorty Rogers - That Old Black Magic (Remastered)

foobar2000 1.6.2 / Dynamic Range Meter 1.1.1
log date: 2021-08-15 07:24:23

––––––––––––––––––––––––––––––––––––––––
Analyzed: Shorty Rogers / The Wizard Of Oz & Other Harold Arlen Songs
––––––––––––––––––––––––––––––––––––––––

DR Peak RMS Duration Track
––––––––––––––––––––––––––––––––––––––––
DR10 -0.62 dB -13.40 dB 1:20 01-We're Off To See The Wizard (Remastered)
DR9 -1.57 dB -16.08 dB 3:01 02-Over the Rainbow (Remastered)
DR10 -1.04 dB -13.68 dB 3:17 03-The Jitterbug (Remastered)
DR11 -1.56 dB -15.14 dB 5:35 04-The Merry Old Land Of Oz (Remastered)
DR11 -0.73 dB -13.90 dB 3:28 05-If I Only Had A Brain (Remastered)
DR10 -0.22 dB -14.11 dB 3:32 06-Ding Dong! The Witch Is Dead! (Remastered)
DR11 -1.04 dB -15.06 dB 3:36 07-My Shining Hour (Remastered)
DR10 -0.05 dB -13.58 dB 2:44 08-Get Happy! (Remastered)
DR11 -0.01 dB -14.05 dB 5:48 09-Blues In The Night (Remastered)
DR10 -0.04 dB -13.60 dB 3:17 10-Let's Fall In Love (Remastered)
DR10 -0.47 dB -12.40 dB 5:25 11-That Old Black Magic (Remastered)
––––––––––––––––––––––––––––––––––––––––

Number of tracks: 11
Official DR value: DR10

Samplerate: 96000 Hz
Channels: 2
Bits per sample: 24
Bitrate: 2849 kbps
Codec: FLAC
================================================================================



Thanks to the Original customer.