Simone Kermes & Gianluca Geremia - Eternity (2020) [Official Digital Download 24/96]

Posted By: pyatak
Simone Kermes & Gianluca Geremia - Eternity (2020) [Official Digital Download 24/96]

Simone Kermes & Gianluca Geremia - Eternity (2020) [Official Digital Download 24/96]
FLAC (tracks) 24-bit/96 kHz | Front Cover | Time - 25:58 minutes | 469 MB
Classical | Label: Simone Kermes, Official Digital Download

"The mysterious path goes inward. In us or nowhere is eternity…"NOVALI The new album" Eternity " by Simone kermes is a reduction to the essentials. The protagonists : Simone Kermes , a singing voice Gianluca Geremia, a Theorb The content: 8 Songs from 4 centuries in different language In the corona Lockdown, Simone kermes felt the longing to express her feelings in music convert to survive. She discovered a new side in her. - on a Essential to reduce. The result: probably the deepest Album of her career. simple but never simple - touching and timeless. ETERNAL.

TRACKLIST

01. Simone Kermes & Gianluca Geremia - Trois Mélodies: No. 2, Élégie (Arr. for Voice and Theorbo)
02. Simone Kermes & Gianluca Geremia - Doce Canciones Españolas: No. 9, Adela (Arr. for Voice and Theorbo)
03. Simone Kermes & Gianluca Geremia - An die Einsamkeit
04. Simone Kermes & Gianluca Geremia - Partenza
05. Simone Kermes & Gianluca Geremia - À Chloris (Arr. for Voice and Theorbo)
06. Simone Kermes & Gianluca Geremia - La fida ninfa, RV 714, Act III, Scene 10: "Dite oimè"
07. Simone Kermes & Gianluca Geremia - I Will Give My Love an Apple (Arr. for Voice and Theorbo)
08. Simone Kermes & Gianluca Geremia - Der Mond ist aufgegangen (Arr. for Voice and Theorbo)

foobar2000 1.6.2 / Dynamic Range Meter 1.1.1
log date: 2020-12-02 22:51:35

––––––––––––––––––––––––––––––––––––––––
Analyzed: Simone Kermes & Gianluca Geremia / Eternity
––––––––––––––––––––––––––––––––––––––––

DR Peak RMS Duration Track
––––––––––––––––––––––––––––––––––––––––
DR9 -0.90 dB -15.20 dB 2:53 01-Trois Mélodies: No. 2, Élégie (Arr. for Voice and Theorbo)
DR11 -0.90 dB -17.90 dB 2:04 02-Doce Canciones Españolas: No. 9, Adela (Arr. for Voice and Theorbo)
DR9 -0.90 dB -13.88 dB 3:40 03-An die Einsamkeit
DR10 -0.90 dB -14.04 dB 2:39 04-Partenza
DR10 -0.90 dB -15.10 dB 3:00 05-À Chloris (Arr. for Voice and Theorbo)
DR9 -0.90 dB -14.32 dB 3:28 06-La fida ninfa, RV 714, Act III, Scene 10: "Dite oimè"
DR8 -0.90 dB -14.68 dB 3:24 07-I Will Give My Love an Apple (Arr. for Voice and Theorbo)
DR11 -2.62 dB -17.96 dB 4:48 08-Der Mond ist aufgegangen (Arr. for Voice and Theorbo)
––––––––––––––––––––––––––––––––––––––––

Number of tracks: 8
Official DR value: DR10

Samplerate: 96000 Hz
Channels: 2
Bits per sample: 24
Bitrate: 2530 kbps
Codec: FLAC
================================================================================



Thanks to the Original customer.