Sleeping With Sirens - Gossip (2017) [Official Digital Download]

Posted By: pyatak
Sleeping With Sirens - Gossip (2017) [Official Digital Download]

Sleeping With Sirens - Gossip (2017)
FLAC (tracks) 24-bit/48 kHz | Front Cover | Time - 37:22 minutes | 483 MB
Pop Rock, Alternative Rock | Label: Warner Bros., Official Digital Download

Produced by David Bendeth (Paramore, All Time Low), the album is brimming with catchy riffs, intricate beats, and singer Kellin Quinn's soul-striking vocals. The 11-track set takes Sleeping with Sirens to a new era in their career, while maintaining the unique spirit that has resonated with millions of listeners since their 2010 debut album. The first single, "Legends" - a triumphant call-to-arms - is out now, alongside the lyric video, and has been named the official song of Team USA for Olympic and Paralympic Winter Games PyeongChang 2018. On Gossip, Sleeping With Sirens have reached the artistic heights they began moving towards since their debut nearly 10 years ago. "We finally captured the live experience with Bendeth," explains frontman Kellin Quinn. "We have the production, but there's a rawness that comes through. Musically, I feel like it's the first Sirens record that sounds specifically like us. We took chances, experimented, and continued to do what we do best: create art. It's something new. It has an authentic sound that we've been working towards all this time."

TRACKLIST

1. Gossip (03:16)
2. Empire to Ashes (03:17)
3. Legends (03:42)
4. Trouble (03:18)
5. One Man Army (03:19)
6. Cheers (02:48)
7. Closer (03:35)
8. Hole in My Heart (03:33)
9. I Need to Know (03:37)
10. The Chase (02:59)
11. War (03:52)

foobar2000 1.3.16 / Dynamic Range Meter 1.1.1
log date: 2017-10-23 10:45:22

––––––––––––––––––––––––––––––––––––––––
Analyzed: Sleeping With Sirens / Gossip
––––––––––––––––––––––––––––––––––––––––

DR Peak RMS Duration Track
––––––––––––––––––––––––––––––––––––––––
DR5 0.00 dB -7.16 dB 3:16 01-Gossip
DR5 0.00 dB -6.58 dB 3:18 02-Empire to Ashes
DR7 0.00 dB -9.18 dB 3:43 03-Legends
DR4 0.00 dB -6.07 dB 3:18 04-Trouble
DR6 0.00 dB -7.49 dB 3:19 05-One Man Army
DR6 0.00 dB -8.55 dB 2:48 06-Cheers
DR5 0.00 dB -7.30 dB 3:36 07-Closer
DR5 0.00 dB -6.78 dB 3:34 08-Hole in My Heart
DR5 0.00 dB -7.90 dB 3:38 09-I Need to Know
DR5 0.00 dB -6.94 dB 2:59 10-The Chase
DR5 0.00 dB -6.94 dB 3:53 11-War
––––––––––––––––––––––––––––––––––––––––

Number of tracks: 11
Official DR value: DR5

Samplerate: 48000 Hz
Channels: 2
Bits per sample: 24
Bitrate: 1735 kbps
Codec: FLAC
================================================================================



Thanks to the Original customer.