Subcategories

Stacey Kent - I Know I Dream: The Orchestral Sessions (Deluxe Version) (2017) [Official Digital Download]

Posted By: SERTiL
Stacey Kent - I Know I Dream: The Orchestral Sessions (Deluxe Version) (2017) [Official Digital Download]

Stacey Kent - I Know I Dream: The Orchestral Sessions (Deluxe Version) (2017)
FLAC (tracks) 24-bit/44.1 kHz | Time - 77:59 minutes | 877 MB
Studio Master, Official Digital Download | Artwork: Digital booklet

With over 2 million albums sold, a Grammy nomination and international recognition as one of the most successful and prolific jazz vocalist of her time, Stacey Kent stands strong among the artists that don’t have much left to prove. She surprises us once more with her brand new album, I Know I Dream. Recorded inside the famous Angel Studios in London with an orchestra of around 60 musicians, this is her first orchestral album in a career that spans two decades and more than 15 albums.

Meticulously produced by Tommy Lawrence and Stacey’s longtime collaborator (and husband!) Jim Tomlinson, the songs are arranged in a way that they are transporting the listeners instead of the size of the orchestra, which brings harmony and depth to the record and to the stories it tells. The most important thing for Stacey Kent was “to keep our sensibility and, at the center of everything, our sense of intimacy”. I Know I Dream revisits in fact the quintessence of her repertoire and soul with three songs in French (Juliette Greco’s Les Amours Perdues, originally written by Serge Gainsbourg, Nino Ferrer’s La Rua Madureira and Léo Ferré’s Avec le temps), four new compositions and five covers of Brazilian timeless classics including, for example, Carlos Jobim’s Photograph. I Know I Dream is a majestic and smooth delight, both panoramic and intimate at the same time: a self-portrait with a big orchestra, like a confidence whispered with 58 accomplices.

Stacey Kent is a jazz singer in the mould of the greatest, with a legion of fans worldwide, a host of honors and awards including a Grammy nomination, album sales approaching 2 million, Gold, Double-Gold and Platinum-selling albums that have reached a series of No. 1 chart positions during the span of her career.



TRACKLIST
01. Double Rainbow 04:32
02. Photograph 06:07
03. Les amours perdues 04:19
04. Bullet Train 07:31
05. To Say Goodbye 05:17
06. Make It Up 04:57
07. Avec le temps 04:18
08. I Know I Dream 05:36
09. La Rua Madureira 04:51
10. Mais Uma Vez 06:23
11. That's All 05:37
12. The Changing Lights 06:19
13. Le soleil noir (Bonus Track) 06:29
14. The Ice Hotel (Bonus Track) 05:44

PERSONNEL
Stacey Kent, vocals
Jim Tomlinson, saxophone, flute
Graham Harvey, piano
Jeremy Brown, bass
Josh Morrison, drums

foobar2000 1.3.7 / Dynamic Range Meter 1.1.1
log date: 2017-10-20 10:20:31

––––––––––––––––––––––––––––––––––––––––
Analyzed: Stacey Kent / I Know I Dream: The Orchestral Sessions (Deluxe Version)
––––––––––––––––––––––––––––––––––––––––

DR Peak RMS Duration Track
––––––––––––––––––––––––––––––––––––––––
DR9 -1.30 dB -12.66 dB 4:32 01-Double Rainbow
DR9 -1.30 dB -12.90 dB 6:07 02-Photograph
DR9 -1.30 dB -11.94 dB 4:19 03-Les amours perdues
DR9 -1.30 dB -12.13 dB 7:32 04-Bullet Train
DR7 -1.30 dB -10.82 dB 5:17 05-To Say Goodbye
DR9 -1.30 dB -11.44 dB 4:57 06-Make It Up
DR8 -1.30 dB -11.92 dB 4:19 07-Avec le temps
DR8 -1.30 dB -11.42 dB 5:37 08-I Know I Dream
DR8 -1.30 dB -11.06 dB 4:51 09-La Rua Madureira
DR8 -1.30 dB -12.14 dB 6:24 10-Mais Uma Vez
DR9 -1.30 dB -12.46 dB 5:38 11-That's All
DR8 -1.30 dB -11.17 dB 6:19 12-The Changing Lights
DR8 -1.30 dB -12.55 dB 6:29 13-Le soleil noir (Bonus Track)
DR10 -1.30 dB -13.40 dB 5:45 14-The Ice Hotel (Bonus Track)
––––––––––––––––––––––––––––––––––––––––

Number of tracks: 14
Official DR value: DR9

Samplerate: 44100 Hz
Channels: 2
Bits per sample: 24
Bitrate: 1617 kbps
Codec: FLAC
================================================================================


Thanks to the Original customer.