Tags
Language
Tags

Jackson Browne - Standing in the Breach (2014) [Official Digital Download 24/192]

Posted By: SERTiL
Jackson Browne - Standing in the Breach (2014) [Official Digital Download 24/192]

Jackson Browne - Standing in the Breach (2014)
FLAC (tracks) 24-bit/192 kHz | Time - 56:10 minutes | 2.12 GB
Studio Master, Official Digital Download | Artwork: Front Cover

Standing In The Breach, Jackson's fourteenth studio album, is a collection of ten songs, at turns deeply personal and political, exploring love, hope, and defiance in the face of the advancing uncertainties of modern life.

First single from the album is ‘The Birds Of St Marks’ – a track first written by Browne in 1967 when he was 18 and returning home to California after a brief stint living in New York. Browne properly recorded it for the first time in 2014.

“This is a song I always heard as a Byrds song, and that was even part of the writing of the song,” he told Rolling Stone in August.

“This is my ideal band, with some of my favourite players, whose combined gifts provide the musical foundation and emotional underpinnings of my new songs,” says Jackson.

“The interplay between Val McCallum and Greg Leisz on this album - the effortlessness of their chemistry is a gift really, that just dropped into my lap.”

Tracklist:
1. The Birds Of St. Marks (4:22)
2. Yeah Yeah (6:14)
3. The Long Way Around (6:24)
4. Leaving Winslow (3:52)
5. If I Could Be Anywhere (7:08)
6. You Know The Night (5:31)
7. Walls And Doors (6:01)
8. Which Side (6:37)
9. Standing In The Breach (5:37)
10. Here (4:25)

foobar2000 1.3.7 / Dynamic Range Meter 1.1.1
log date: 2018-07-10 23:51:21

––––––––––––––––––––––––––––––––––––––––
Analyzed: Jackson Browne / Standing In The Breach
––––––––––––––––––––––––––––––––––––––––

DR Peak RMS Duration Track
––––––––––––––––––––––––––––––––––––––––
DR8 -0.20 dB -9.15 dB 4:23 01-The Birds Of St. Marks
DR8 -0.20 dB -9.38 dB 6:14 02-Yeah Yeah
DR8 -0.10 dB -9.37 dB 6:24 03-The Long Way Around
DR8 -0.20 dB -9.50 dB 3:53 04-Leaving Winslow
DR7 -0.20 dB -9.76 dB 7:08 05-If I Could Be Anywhere
DR8 -0.40 dB -9.56 dB 5:31 06-You Know The Night
DR9 -0.20 dB -12.55 dB 6:01 07-Walls And Doors
DR9 -0.20 dB -10.63 dB 6:37 08-Which Side
DR7 -0.20 dB -10.58 dB 5:37 09-Standing In The Breach
DR9 -0.20 dB -11.15 dB 4:26 10-Here
––––––––––––––––––––––––––––––––––––––––

Number of tracks: 10
Official DR value: DR8

Samplerate: 192000 Hz
Channels: 2
Bits per sample: 24
Bitrate: 5229 kbps
Codec: FLAC
================================================================================


Thanks to the Original customer.