Tags
Language
Tags

Didier Sandre - Stravinsky: L'Histoire du soldat (2018) [Official Digital Download 24/96]

Posted By: SERTiL
Didier Sandre - Stravinsky: L'Histoire du soldat (2018) [Official Digital Download 24/96]

Didier Sandre, Denis Podalydès, Michel Vuillermoz, Olivier Charlier, Ensemble instrumental & Jean-Christophe Gayot - Stravinsky: L'Histoire du soldat (2018)
FLAC (tracks) 24-bit/96 kHz | Time - 57:59 minutes | 994 MB
Studio Master, Official Digital Download | Artwork: Digital Booklet

Faust at war: Histoire du soldat, premiered in September 1918, pays tribute to all those who died in a war that was drawing to an end. The soldier wagers his soul and his fiddle, which will not save him. The Devil always wins. Inspired by the fine text by Ramuz, Stravinsky’s music evokes parades, the circus, jazz . . . Three peerless storytellers – Denis Podalydès, Didier Sandre, Michel Vuillermoz – and seven instrumentalists; they too play as if their life depended on it, instilling this recording with an energy as expressive as it is Mephistophelean.

Tracklist:
1. L'Histoire du soldat, Première partie: I. Marche du soldat. Airs de marche 02:53
2. L'Histoire du soldat, Première partie: II. Musique de la première scène. Petits airs au bord du ruisseau 06:14
3. L'Histoire du soldat, Première partie: III. Marche du soldat. Airs de marche (reprise) 04:12
4. L'Histoire du soldat, Première partie: IV. Musique de la deuxième scène. Pastorale 07:48
5. L'Histoire du soldat, Première partie: V. Musique de la troisième scène. Petits airs au bord du ruisseau (reprise) 04:19
6. L'Histoire du soldat, Première partie: VI. Musique de la troisième scène (reprise) 00:47
7. L'Histoire du soldat, Deuxième partie: VII. Marche du soldat. Airs de marche (reprise) 03:40
8. L'Histoire du soldat, Deuxième partie: VIII. Marche royale 07:13
9. L'Histoire du soldat, Deuxième partie: IX. Petit Concert 03:13
10. L'Histoire du soldat, Deuxième partie: X. Trois Danses. Tango - Valse - Ragtime 06:50
11. L'Histoire du soldat, Deuxième partie: XI. Danse du diable 01:35
12. L'Histoire du soldat, Deuxième partie: XII. Petit Choral 00:45
13. L'Histoire du soldat, Deuxième partie: XIII. Couplet du diable 00:45
14. L'Histoire du soldat, Deuxième partie: XIV. Grand Choral 05:23
15. L'Histoire du soldat, Deuxième partie: XV. Marche triomphale du Diable 02:22

Personnel:
Didier Sandre, narrator
Denis Podalydès, narrator
Michel Vuillermoz, narrator
Olivier Charlier, violin
Ensemble instrumental
Jean-Christophe Gayot, conductor

foobar2000 1.3.7 / Dynamic Range Meter 1.1.1
log date: 2018-09-28 16:08:52

––––––––––––––––––––––––––––––––––––––––
Analyzed: Denis Podalydès, Didier Sandre, Michel Vuillermoz / Stravinsky: L'Histoire du soldat (1)
Denis Podalydès, Olivier Charlier, Didier Sandre, Jean-Christophe Gayot, Ensemble Instrumental, Michel Vuillermoz / Stravinsky: L'Histoire du soldat (2-3)
Denis Podalydès, Olivier Charlier, Didier Sandre, Jean-Christophe Gayot, Ensemble Instrumental / Stravinsky: L'Histoire du soldat (4-7)
Olivier Charlier, Didier Sandre, Jean-Christophe Gayot, Ensemble Instrumental, Michel Vuillermoz / Stravinsky: L'Histoire du soldat (8)
Olivier Charlier, Didier Sandre, Jean-Christophe Gayot, Ensemble Instrumental / Stravinsky: L'Histoire du soldat (9-14)
Olivier Charlier, Jean-Christophe Gayot, Ensemble Instrumental / Stravinsky: L'Histoire du soldat (15)
––––––––––––––––––––––––––––––––––––––––

DR Peak RMS Duration Track
––––––––––––––––––––––––––––––––––––––––
DR19 -0.47 dB -23.52 dB 6:14 02-L'Histoire du soldat, Première partie - II. Musique de la première scène. Petits airs au bord du ruisseau
DR17 -0.26 dB -23.00 dB 7:48 04-L'Histoire du soldat, Première partie - IV. Musique de la deuxième scène. Pastorale
DR17 -0.26 dB -22.22 dB 4:20 05-L'Histoire du soldat, Première partie - V. Musique de la troisième scène. Petits airs au bord du ruisseau (reprise)
DR13 -0.26 dB -18.37 dB 2:53 01-L'Histoire du soldat, Première partie - I. Marche du soldat. Airs de marche
DR14 -0.26 dB -18.18 dB 4:13 03-L'Histoire du soldat, Première partie - III. Marche du soldat. Airs de marche (reprise)
DR12 -0.25 dB -17.60 dB 3:40 07-L'Histoire du soldat, Deuxième partie - VII. Marche du soldat. Airs de marche (reprise)
DR11 -5.25 dB -22.42 dB 5:23 14-L'Histoire du soldat, Deuxième partie - XIV. Grand Choral
DR13 -0.26 dB -17.59 dB 0:45 13-L'Histoire du soldat, Deuxième partie - XIII. Couplet du diable
DR13 -6.01 dB -23.50 dB 0:48 06-L'Histoire du soldat, Première partie - VI. Musique de la troisième scène (reprise)
DR16 -0.26 dB -20.45 dB 7:14 08-L'Histoire du soldat, Deuxième partie - VIII. Marche royale
DR15 -0.26 dB -19.25 dB 3:13 09-L'Histoire du soldat, Deuxième partie - IX. Petit Concert
DR18 -0.26 dB -22.37 dB 6:50 10-L'Histoire du soldat, Deuxième partie - X. Trois Danses. Tango - Valse - Ragtime
DR13 -0.26 dB -18.18 dB 1:36 11-L'Histoire du soldat, Deuxième partie - XI. Danse du diable
DR10 -2.09 dB -15.60 dB 0:45 12-L'Histoire du soldat, Deuxième partie - XII. Petit Choral
DR12 -0.25 dB -16.18 dB 2:22 15-L'Histoire du soldat, Deuxième partie - XV. Marche triomphale du Diable
––––––––––––––––––––––––––––––––––––––––

Number of tracks: 15
Official DR value: DR14

Samplerate: 96000 Hz
Channels: 2
Bits per sample: 24
Bitrate: 2396 kbps
Codec: FLAC
================================================================================


Thanks to the Original customer.