Styx - Crash Of The Crown (2021) [Official Digital Download 24/96]

Posted By: pyatak
Styx - Crash Of The Crown (2021) [Official Digital Download 24/96]

Styx - Crash Of The Crown (2021) [Official Digital Download 24/96]
FLAC (tracks) 24-bit/96 kHz | Front Cover | Time - 43:10 minutes | 926 MB
Rock | Label: ‎ UMC, Official Digital Download

A new era of hope, survival, and prosperity comes calling with the release of CRASH OF THE CROWN, STYX’s new studio album, which was written pre-pandemic and recorded during the trying times of the pandemic.

The legendary rockers–James “JY” Young (lead vocals, guitars), Tommy Shaw (lead vocals, guitars), Chuck Panozzo (bass, vocals), Todd Sucherman (drums, percussion), Lawrence Gowan (lead vocals, keyboards) and Ricky Phillips (bass, guitar, vocals)–will release their 17th album June 18 on the band’s label, Alpha Dog 2T/UMC, which will be sold as black vinyl and CD.

TRACKLIST

1. Styx - The Fight Of Our Lives
2. Styx - A Monster
3. Styx - Reveries
4. Styx - Hold Back The Darkness
5. Styx - Save Us From Ourselves
6. Styx - Crash Of The Crown
7. Styx - Our Wonderful Lives
8. Styx - Common Ground
9. Styx - Sound The Alarm
10. Styx - Long Live The King
11. Styx - Lost At Sea
12. Styx - Coming Out The Other Side
13. Styx - To Those
14. Styx - Another Farewell
15. Styx - Stream

foobar2000 1.6.2 / Dynamic Range Meter 1.1.1
log date: 2021-06-17 13:34:24

––––––––––––––––––––––––––––––––––––––––
Analyzed: Styx / Crash Of The Crown
––––––––––––––––––––––––––––––––––––––––

DR Peak RMS Duration Track
––––––––––––––––––––––––––––––––––––––––
DR7 -0.35 dB -9.67 dB 1:55 01-The Fight Of Our Lives
DR7 -0.20 dB -8.54 dB 3:28 02-A Monster
DR6 -0.35 dB -8.73 dB 3:04 03-Reveries
DR7 -0.35 dB -11.50 dB 3:59 04-Hold Back The Darkness
DR6 -0.35 dB -8.84 dB 3:03 05-Save Us From Ourselves
DR7 -0.35 dB -8.63 dB 3:46 06-Crash Of The Crown
DR8 -0.35 dB -10.51 dB 3:07 07-Our Wonderful Lives
DR7 -0.35 dB -8.84 dB 4:00 08-Common Ground
DR7 -0.35 dB -10.28 dB 3:25 09-Sound The Alarm
DR6 -0.35 dB -7.73 dB 2:34 10-Long Live The King
DR7 -0.35 dB -11.03 dB 0:38 11-Lost At Sea
DR6 -0.35 dB -9.07 dB 3:48 12-Coming Out The Other Side
DR6 -0.35 dB -7.85 dB 3:01 13-To Those
DR10 -0.72 dB -15.08 dB 0:27 14-Another Farewell
DR7 -0.35 dB -11.68 dB 2:57 15-Stream
––––––––––––––––––––––––––––––––––––––––

Number of tracks: 15
Official DR value: DR7

Samplerate: 96000 Hz
Channels: 2
Bits per sample: 24
Bitrate: 2688 kbps
Codec: FLAC
================================================================================



Thanks to the Original customer.