Tags
Language
Tags

Feininger Trio - Suk, Dvorak & Smetana: Piano Trios (2013) [Official Digital Download]

Posted By: SERTiL
Feininger Trio - Suk, Dvorak & Smetana: Piano Trios (2013) [Official Digital Download]

Feininger Trio, Adrian Oetiker, Christoph Streuli & David Riniker - Suk, Dvorak & Smetana: Piano Trios (2013)
FLAC (tracks) 24-bit/44.1 kHz | Time - 75:34 minutes | 692 MB
Studio Master, Official Digital Download | Artwork: Front Cover

The works by Smetana, Dvořák and Suk featured on this album are characteristic examples of how the Czech late-19th century national style was reflected in the area of chamber music.

Tracklist:
01. Piano Trio in C Minor, Op. 2: I. Allegro
02. Piano Trio in C Minor, Op. 2: II. Andante
03. Piano Trio in C Minor, Op. 2: III. Vivace
04. Piano Trio No. 2 in G Minor, Op. 26: I. Allegro moderato
05. Piano Trio No. 2 in G Minor, Op. 26: II. Largo
06. Piano Trio No. 2 in G Minor, Op. 26: III. Scherzo. Presto
07. Piano Trio No. 2 in G Minor, Op. 26: IV. Finale. Allegro ma non troppo
08. Piano Trio in G Minor, Op. 15: I. Moderato assai
09. Piano Trio in G Minor, Op. 15: II. Allegro, ma non agitato-Alternativo 1. Andante-Alternativo 2. Maestoso
10. Piano Trio in G Minor, Op. 15: III. Finale. Presto

Composers:
Dvorak, Antonin (1841-1904)
Smetana, Bedrich (1824-84)
Suk, Josef (1874-1935)

Personnel:
Adrian Oetiker, piano
Christoph Streuli, violin
David Riniker, cello

Recording: 2011 & 2012, Teldec Studios, Berlin
Recording Producer, editing & mastering: Christoph Franke

foobar2000 1.3.7 / Dynamic Range Meter 1.1.1
log date: 2018-03-20 18:09:14

––––––––––––––––––––––––––––––––––––––––
Analyzed: Feininger Trio, Adrian Oetiker, Christoph Streuli, David Riniker / Suk, Dvorak & Smetana: Piano Trios
––––––––––––––––––––––––––––––––––––––––

DR Peak RMS Duration Track
––––––––––––––––––––––––––––––––––––––––
DR14 -1.06 dB -19.36 dB 6:18 01-Piano Trio in C Minor, Op. 2: I. Allegro
DR15 -1.06 dB -23.46 dB 4:18 02-Piano Trio in C Minor, Op. 2: II. Andante
DR13 -1.06 dB -19.44 dB 5:19 03-Piano Trio in C Minor, Op. 2: III. Vivace
DR13 -1.57 dB -19.22 dB 12:30 04-Piano Trio No. 2 in G Minor, Op. 26: I. Allegro moderato
DR13 -5.17 dB -23.78 dB 6:35 05-Piano Trio No. 2 in G Minor, Op. 26: II. Largo
DR13 -1.99 dB -19.95 dB 6:16 06-Piano Trio No. 2 in G Minor, Op. 26: III. Scherzo. Presto
DR14 -1.52 dB -19.77 dB 5:53 07-Piano Trio No. 2 in G Minor, Op. 26: IV. Finale. Allegro ma non troppo
DR13 -1.06 dB -18.67 dB 11:18 08-Piano Trio in G Minor, Op. 15: I. Moderato assai
DR14 -1.19 dB -22.02 dB 8:11 09-Piano Trio in G Minor, Op. 15: II. Allegro, ma non agitato-Alternativo 1. Andante-Alternativo 2. Maestoso
DR13 -1.06 dB -20.93 dB 9:00 10-Piano Trio in G Minor, Op. 15: III. Finale. Presto
––––––––––––––––––––––––––––––––––––––––

Number of tracks: 10
Official DR value: DR13

Samplerate: 44100 Hz
Channels: 2
Bits per sample: 24
Bitrate: 1225 kbps
Codec: FLAC
================================================================================


Thanks to the Original customer.