Susie Arioli - Christmas Dreaming (2010/2014) [Official Digital Download]

Posted By: SERTiL
Susie Arioli - Christmas Dreaming (2010/2014) [Official Digital Download]

Susie Arioli - Christmas Dreaming (2010/2014)
FLAC (tracks) 24-bit/44.1 kHz | Time - 40:13 minutes | 400 MB
Studio Master, Official Digital Download | Artwork: Digital Booklet

True to her inimitable style, Susie invents a very personal way of celebrating the Holidays with this Christmas album of bewitching charm. Once again, Susie demonstrates her exceptional flair for selecting songs, offering a choice of some great classics and some superb lesser known titles that she unveils with obvious pleasure. The infinitely alluring performances give off irresistible warmth, heightened by the jazz and bluesy colours so characteristic of the Arioli sound. With its flowing rhythms, its hushed atmospheres and its carefully crafted arrangements, Christmas Dreaming evokes the holiday spirit with a formidable authenticity

Tracklist:
1. Have Yourself a Merry Little Christmas 04:10
2. Winter Wonderland 02:54
3. Blue Christmas 03:17
4. Call Collect on Christmas 03:37
5. I'll Be Home for Christmas 03:37
6. I've Got My Love to Keep Me Warm (From On the Avenue) 03:35
7. When You Wish Upon a Star (From Pinocchio) 04:57
8. La peregrinación 03:11
9. Old Toy Trains 02:18
10. What Are You Doing New Year's Eve? 03:00
11. Christmas Dreaming 03:28
12. Ave Maria 02:17

Personnel:
Susie Arioli, vocals
Jordan Officer, vocals, guitar, mandolin
Bill Gossage, bass, vocals
Michael Jerome Browne, guitar

Produced by Jordan Officer, Susie Arioli

Mastered by René Laflamme (2xHD)

foobar2000 1.3.7 / Dynamic Range Meter 1.1.1
log date: 2019-08-14 11:08:28

––––––––––––––––––––––––––––––––––––––––
Analyzed: Susie Arioli / Christmas Dreaming (feat. Jordan Officer)
––––––––––––––––––––––––––––––––––––––––

DR Peak RMS Duration Track
––––––––––––––––––––––––––––––––––––––––
DR10 -0.70 dB -13.69 dB 4:10 01-Have Yourself a Merry Little Christmas
DR9 -1.25 dB -11.79 dB 2:54 02-Winter Wonderland
DR9 -1.36 dB -11.81 dB 3:18 03-Blue Christmas
DR10 -0.98 dB -12.60 dB 3:37 04-Call Collect on Christmas
DR10 -0.95 dB -12.29 dB 3:37 05-I'll Be Home for Christmas
DR9 -1.63 dB -11.97 dB 3:35 06-I've Got My Love to Keep Me Warm (From "On the Avenue")
DR11 -1.58 dB -14.89 dB 4:57 07-When You Wish Upon a Star (From "Pinocchio")
DR10 -1.01 dB -13.84 dB 3:11 08-La peregrinación
DR10 -1.50 dB -13.88 dB 2:18 09-Old Toy Trains
DR9 -0.98 dB -12.57 dB 3:00 10-What Are You Doing New Year's Eve?
DR10 -1.74 dB -14.74 dB 3:28 11-Christmas Dreaming
DR10 -1.02 dB -14.05 dB 2:18 12-Ave Maria
––––––––––––––––––––––––––––––––––––––––

Number of tracks: 12
Official DR value: DR10

Samplerate: 44100 Hz
Channels: 2
Bits per sample: 24
Bitrate: 1291 kbps
Codec: FLAC
================================================================================


Thanks to the Original customer.