Sviatoslav Richter - Tchaikovsky & Rachmaninoff- Piano Concertos (2021) [Official Digital Download 24/96]

Posted By: pyatak
Sviatoslav Richter - Tchaikovsky & Rachmaninoff- Piano Concertos (2021) [Official Digital Download 24/96]

Sviatoslav Richter - Tchaikovsky & Rachmaninoff- Piano Concertos (2021) [Official Digital Download 24/96]
FLAC (tracks) 24-bit/96 kHz | Front Cover | Time - 01:42:03 minutes | 945 MB
Classical | Label: Andromeda, Official Digital Download

Sviatoslav Teofilovich Richter March 20 [O.S. March 7] 1915 – August 1, 1997) was a Soviet and Russian pianist who is frequently regarded as one of the greatest pianists of all time. He is known for the "depth of his interpretations, his virtuoso technique, and his vast repertoire."

TRACKLIST

1. Sviatoslav Richter - I. Allegro non troppo e molto maestoso
2. Sviatoslav Richter - II. Andantino simplice
3. Sviatoslav Richter - III. Allegro con fuoco
4. Sviatoslav Richter - I. Moderato
5. Sviatoslav Richter - II. Adagio sostenuto
6. Sviatoslav Richter - III. Allegro scherzando
7. Van Cliburn - I. Allegro non troppo e molto maestoso (Live)
8. Van Cliburn - II. Andantino simplice (Live)
9. Van Cliburn - III. Allegro con fuoco (Live)

foobar2000 1.6.2 / Dynamic Range Meter 1.1.1
log date: 2021-06-23 16:05:40

––––––––––––––––––––––––––––––––––––––––
Analyzed: Sviatoslav Richter / Tchaikovsky & Rachmaninoff: Piano Concertos (1-6)
Van Cliburn / Tchaikovsky & Rachmaninoff: Piano Concertos (7-9)
––––––––––––––––––––––––––––––––––––––––

DR Peak RMS Duration Track
––––––––––––––––––––––––––––––––––––––––
DR13 -0.16 dB -17.79 dB 20:32 01-I. Allegro non troppo e molto maestoso
DR16 -5.50 dB -27.35 dB 6:16 02-II. Andantino simplice
DR12 -0.16 dB -16.72 dB 7:01 03-III. Allegro con fuoco
DR10 -0.15 dB -14.34 dB 11:23 04-I. Moderato
DR12 -0.22 dB -17.35 dB 11:44 05-II. Adagio sostenuto
DR9 -0.15 dB -13.46 dB 11:40 06-III. Allegro scherzando
DR15 -0.88 dB -22.39 dB 19:54 07-I. Allegro non troppo e molto maestoso (Live)
DR14 -3.78 dB -30.42 dB 6:38 08-II. Andantino simplice (Live)
DR13 -2.06 dB -20.10 dB 7:00 09-III. Allegro con fuoco (Live)
––––––––––––––––––––––––––––––––––––––––

Number of tracks: 9
Official DR value: DR13

Samplerate: 48000 Hz
Channels: 2
Bits per sample: 24
Bitrate: 1265 kbps
Codec: FLAC
================================================================================



Thanks to the Original customer.