Norman Connors - Take It To The Limit (Expanded Edition) (1980/2015) [Official Digital Download 24/96]

Posted By: SERTiL
Norman Connors - Take It To The Limit (Expanded Edition) (1980/2015) [Official Digital Download 24/96]

Norman Connors - Take It To The Limit (Expanded Edition) (1980/2015)
FLAC (tracks) 24-bit/96 kHz | Time - 44:35 minutes | 992 MB
Studio Master, Official Digital Download | Artwork: Front Cover

Drummer and stellar lineup assembler Norman Connors landed on Arista for Take It to the Limit, an album that continued the man's embrace of smooth R&B and gradual abandonment of jazz. The roster here is extremely lengthy; not only is there a group numbering at about a dozen that's dubbed the Starship Orchestra, but there's well over 30 other (!) guests who pop in and out of the mix in various capacities. Both the title track (featuring Adaritha on vocals) and "Melancholy Fire" (Glenn Jones) rightfully cracked the Top 30 of the black singles chart, but a small clutch of other gems deserved similar achievements. "I Don't Need Nobody Else," sung by Al Johnson (arranger and conductor of half the album's cuts), sparkles brightly, while Adaritha's "Justify" is just as gorgeous as the album's hit singles. One minor disappointment is Leon Ware's set-closing "Everywhere Inside of Me," which falls toward the sappy side. One major dud is a plonking cover of Steely Dan's "Black Cow," which has inexplicably shown up on a number of Connors anthologies. Six out of eight ain't bad by any stretch. ~ AllMusic Review by Andy Kellman

Tracklist:
01. Take It to the Limit
02. Melancholy Fire
03. You've Been on My Mind
04. I Don't Need Nobody Else
05. Justify
06. Black Cow
07. You Bring Me Joy
08. Everywhere Inside of Me
09. Melancholy Fire (7")
10. Take It to the Limit (12")
11. Take It to the Limit (7")

foobar2000 1.3.7 / Dynamic Range Meter 1.1.1
log date: 2018-02-08 12:15:23

––––––––––––––––––––––––––––––––––––––––
Analyzed: Norman Connors / Take It To The Limit (Expanded Edition)
––––––––––––––––––––––––––––––––––––––––

DR Peak RMS Duration Track
––––––––––––––––––––––––––––––––––––––––
DR9 -0.03 dB -10.94 dB 3:52 01-Take It to the Limit
DR10 -0.03 dB -11.72 dB 3:57 02-Melancholy Fire
DR10 -0.03 dB -12.04 dB 4:20 03-You've Been on My Mind
DR10 -0.03 dB -11.66 dB 3:49 04-I Don't Need Nobody Else
DR9 -0.03 dB -11.60 dB 3:47 05-Justify
DR11 -0.03 dB -13.62 dB 4:54 06-Black Cow
DR10 -0.03 dB -12.99 dB 3:36 07-You Bring Me Joy
DR11 -0.03 dB -13.03 dB 4:48 08-Everywhere Inside of Me
DR9 -0.03 dB -11.29 dB 3:49 09-Melancholy Fire (7")
DR11 -0.03 dB -12.33 dB 4:17 10-Take It to the Limit (12")
DR10 -0.03 dB -12.09 dB 3:34 11-Take It to the Limit (7")
––––––––––––––––––––––––––––––––––––––––

Number of tracks: 11
Official DR value: DR10

Samplerate: 96000 Hz
Channels: 2
Bits per sample: 24
Bitrate: 3209 kbps
Codec: FLAC
================================================================================


Thanks to the Original customer.