Tags
Language
Tags

Kristjan Järvi - Tchaikovsky: Swan Lake Ballet Music (2015) [Official Digital Download 24/96]

Posted By: SERTiL
Kristjan Järvi - Tchaikovsky: Swan Lake Ballet Music (2015) [Official Digital Download 24/96]

Kristjan Järvi - Tchaikovsky: Swan Lake Ballet Music (2015)
FLAC (tracks) 24-bit/96 kHz | Time - 68:03 minutes | 1.14 GB
Studio Master, Official Digital Download | Artwork: Digital booklet

Tchaikovsky’s ballet Swan Lake is one of the most popular of all ballets. Fashioned from Russian folk tales, the ballet tells the story of Odette, a princess turned into a swan by the curse of evil sorcerer, Odile, the Black Swan. This album presents Tchaikovsky’s immortal ballet music in a new version by conductor Kristjan Järvi. The chronological order of the pieces has been newly arranged to achieve a dramatic arc of tension. The arrangement also brings some new transitions and some new musical endings. Kristjan Järvi has been the principal conductor of the MDR Radio Symphony Orchestra since the 2012 season and of the Gstaad Festival Orchestra since 2010. He is a unique musical personality pushing the classical music borders with new ideas and with his charisma and extraordinary technical prowess, and has been hailed by *The New York Times* as "a kinetic force on the podium, like Leonard Bernstein reborn." Järvi combines his classical music origins and his love for traditional repertoire with a powerful passion for original concert programs, that catapult concert halls and audiences around the world into the 21st century. Järvi has more than 30 albums to his credit, which have received numerous awards, including the Swedish Grammy for Best Opera Performance, the German Record Critics Prize for Best Album, and a Grammy nomination. Every year the Menuhin Festival Gstaad (Switzerland) thrills its audience with unique concerts and top-class musical programmes set amidst magnificent Swiss countryside. The Gstaad Festival Orchestra (GFO) grew out of the vision to spread the innovative, inspiring spirit of the Menuhin Festival abroad and to enable this celebrated annual music festival to resonate on an international platform. Since its foundation in 2010, the GFO put its self-imposed challenge into practice and has soared again and again to new musical heights. The Gstaad Festival Orchestra is made up of the best musicians from Switzerland's leading orchestras.

TRACKLIST

Piotr Ilich Tchaikovsky (1840-1893)

01. Swan Lake, Op. 20: Introduction
02. Swan Lake, Op. 20: Swan Lake, Op. 20: Act I: Scène 1
03. Swan Lake, Op. 20: Act I: Valse
04. Swan Lake, Op. 20: Swan Lake, Op. 20: Act I: Scène 2
05. Swan Lake, Op. 20: Swan Lake, Op. 20: Act I: Pas de trois
06. Swan Lake, Op. 20: Swan Lake, Op. 20: Act II: Pas de deux
07. Swan Lake, Op. 20: Act II: Danse de coupes-Valse-Scene
08. Swan Lake, Op. 20: Swan Lake, Op. 20: Act II: Danses des cygnes
09. Swan Lake, Op. 20: Swan Lake, Op. 20: Act III: Allegro giusto-Danses
10. Swan Lake, Op. 20: Act III: Scène
11. Swan Lake, Op. 20: Swan Lake, Op. 20: Act III: Pas de six
12. Swan Lake, Op. 20: Swan Lake, Op. 20: Act III: Pas de deux
13. Swan Lake, Op. 20: Swan Lake, Op. 20: Act III: Czardas-Danse Hongroise
14. Swan Lake, Op. 20: Swan Lake, Op. 20: Act III: Danse Russe
15. Swan Lake, Op. 20: Act III: Danse Espagnole
16. Swan Lake, Op. 20: Act III: Danse Napolitaine
17. Swan Lake, Op. 20: Swan Lake, Op. 20: Act III: Mazurka
18. Swan Lake, Op. 20: Act IV: Danses des petits cygnes
19. Swan Lake, Op. 20: Swan Lake, Op. 20: Act IV: Scène finale

PERSONNEL
Gstaad Festival Orchestra
Kristjan Järvi, conductor

foobar2000 1.3.7 / Dynamic Range Meter 1.1.1
log date: 2017-09-19 20:21:59

––––––––––––––––––––––––––––––––––––––––
Analyzed: Kristjan Järvi / Tchaikovsky: Swan Lake Ballet Music
––––––––––––––––––––––––––––––––––––––––

DR Peak RMS Duration Track
––––––––––––––––––––––––––––––––––––––––
DR15 -0.40 dB -22.76 dB 1:55 01-Swan Lake, Op. 20: Introduction
DR13 -1.10 dB -20.16 dB 2:47 02-Swan Lake, Op. 20: Swan Lake, Op. 20: Act I: Scène 1
DR14 -0.40 dB -20.22 dB 3:36 03-Swan Lake, Op. 20: Act I: Valse
DR15 -1.32 dB -23.47 dB 2:27 04-Swan Lake, Op. 20: Swan Lake, Op. 20: Act I: Scène 2
DR15 -0.40 dB -22.30 dB 5:02 05-Swan Lake, Op. 20: Swan Lake, Op. 20: Act I: Pas de trois
DR15 -2.82 dB -23.50 dB 8:19 06-Swan Lake, Op. 20: Swan Lake, Op. 20: Act II: Pas de deux
DR15 -4.81 dB -26.14 dB 4:14 07-Swan Lake, Op. 20: Act II: Danse de coupes-Valse-Scene
DR15 -3.29 dB -25.87 dB 8:09 08-Swan Lake, Op. 20: Swan Lake, Op. 20: Act II: Danses des cygnes
DR13 -3.18 dB -19.32 dB 0:44 09-Swan Lake, Op. 20: Swan Lake, Op. 20: Act III: Allegro giusto-Danses
DR18 -0.40 dB -25.27 dB 3:27 10-Swan Lake, Op. 20: Act III: Scène
DR13 -1.03 dB -21.60 dB 2:51 11-Swan Lake, Op. 20: Swan Lake, Op. 20: Act III: Pas de six
DR15 -7.58 dB -30.69 dB 2:41 12-Swan Lake, Op. 20: Swan Lake, Op. 20: Act III: Pas de deux
DR14 -1.09 dB -22.89 dB 2:56 13-Swan Lake, Op. 20: Swan Lake, Op. 20: Act III: Czardas-Danse Hongroise
DR15 -0.40 dB -25.15 dB 2:37 14-Swan Lake, Op. 20: Swan Lake, Op. 20: Act III: Danse Russe
DR14 -5.12 dB -25.25 dB 1:29 15-Swan Lake, Op. 20: Act III: Danse Espagnole
DR13 -15.32 dB -36.83 dB 1:03 16-Swan Lake, Op. 20: Act III: Danse Napolitaine
DR13 -3.01 dB -20.93 dB 2:45 17-Swan Lake, Op. 20: Swan Lake, Op. 20: Act III: Mazurka
DR15 -2.80 dB -27.61 dB 2:49 18-Swan Lake, Op. 20: Act IV: Danses des petits cygnes
DR13 -0.40 dB -18.25 dB 8:25 19-Swan Lake, Op. 20: Swan Lake, Op. 20: Act IV: Scène finale
––––––––––––––––––––––––––––––––––––––––

Number of tracks: 19
Official DR value: DR14

Samplerate: 96000 Hz
Channels: 2
Bits per sample: 24
Bitrate: 2598 kbps
Codec: FLAC
================================================================================


Thanks to the Original customer.