Tags
Language
Tags

The Sheepdogs - Outta Sight (2022)

Posted By: v3122
The Sheepdogs - Outta Sight (2022)

The Sheepdogs - Outta Sight (2022)
FLAC (Tracks) 24-bit/44.1 kHz | Official Digital Download | Time: 37:30
Rock | WM Canada | ~ 442 Mb

The strength of The Sheepdogs in full throttle straight-up appeals to your senses. Without pretension, it’s urgent, rhythmic, clear, and fun; it’s a break from slick production and gazing at your navel and proclaims the joy and jubilation of drums, bass, horns, and electric guitar. The Sheepdogs make tunes that make you nod your head. The artistry, however, beneath the stadium riffs—the harmonies, the multiple guitar parts, the groove behind a rhythm section that hangs out together when they’re not on the clock—is battle-honed and spit-shined between vans, garages, thousands of soundchecks, and, yes, headlining shows…

~ bluesrockreview.com
The Sheepdogs - Outta Sight (2022):

Tracklist:

01. Here I Am [02:46]
02. Find the Truth [02:53]
03. I Wanna Know You [03:31]
04. Waiting for Your Call [02:19]
05. Carrying On [03:10]
06. So Far Gone [03:44]
07. Scarborough Street Fight [04:31]
08. Mama Was a Gardener [03:29]
09. Goddamn Money [03:45]
10. Didn't I [03:27]
11. Roughrider '89 [04:00]

foobar2000 1.6.8 / Dynamic Range Meter 1.1.1
log date: 2022-06-02 18:07:20

––––––––––––––––––––––––––––––––––––––––
Analyzed: The Sheepdogs / Outta Sight
––––––––––––––––––––––––––––––––––––––––

DR Peak RMS Duration Track
––––––––––––––––––––––––––––––––––––––––
DR6 0.00 dB -7.92 dB 2:46 01-Here I Am
DR7 0.00 dB -7.94 dB 2:53 02-Find the Truth
DR6 0.00 dB -7.83 dB 3:31 03-I Wanna Know You
DR7 -0.05 dB -8.44 dB 2:19 04-Waiting for Your Call
DR7 0.00 dB -8.51 dB 3:10 05-Carrying On
DR7 0.00 dB -8.31 dB 3:44 06-So Far Gone
DR6 0.00 dB -7.68 dB 4:31 07-Scarborough Street Fight
DR7 0.00 dB -8.82 dB 3:29 08-Mama Was a Gardener
DR7 0.00 dB -7.90 dB 3:45 09-Goddamn Money
DR7 0.00 dB -8.90 dB 3:27 10-Didn't I
DR7 0.00 dB -8.54 dB 4:00 11-Roughrider '89
––––––––––––––––––––––––––––––––––––––––

Number of tracks: 11
Official DR value: DR7

Samplerate: 44100 Hz
Channels: 2
Bits per sample: 24
Bitrate: 1608 kbps
Codec: FLAC

All thanks go to the original releaser

Download The Sheepdogs - Outta Sight (2022):