The Brooklyn Bridge - Brooklyn Bridge (1968/2015) [Official Digital Download 24/96]

Posted By: SERTiL
The Brooklyn Bridge - Brooklyn Bridge (1968/2015) [Official Digital Download 24/96]

The Brooklyn Bridge - Brooklyn Bridge (1968/2015)
FLAC (tracks) 24-bit/96 kHz | Time - 32:49 minutes | 722 MB
Studio Master, Official Digital Download | Artwork: Digital Booklet

The '60s pop outfit Brooklyn Bridge were led by Johnny Maestro, the former frontman of the Crests. The group was formed on Long Island in 1968 from the ashes of local rivals the Del-Satins (a vocal quartet including Maestro, Fred Ferrara, Mike Gregorio, and Les Cauchi) and the Rhythm Method (musical director Tom Sullivan, guitarist Jim Macioce, organist Carolyn Woods, bassist Jim Rosica, trumpeter Shelly Davis, saxophonist Joe Ruvio, and drummer Artie Cantanzarita). Upon joining forces as the Brooklyn Bridge, the bandmembers issued their self-titled debut album in 1969, scoring their first Top Five hit with the Jimmy Webb composition "Worst That Could Happen." Subsequent singles like "Blessed Is the Rain" and "Your Husband – My Wife" failed to recapture the debut's success, however, and albums like The Second Brooklyn Bridge and 1970's Day Is Done also fared poorly; while the Brooklyn Bridge's contract with the Buddah label ended in the wake of 1972's Bridge in Blue, they continued performing live throughout the decades to follow, with Maestro, Ferrara, Cauchi, and Rosica remaining from the original lineup in the '90s and 2000s. Under the moniker Johnny Maestro & the Brooklyn Bridge, the group also released CDs such as 2004's Today, which consisted of re-recordings of songs by the original incarnations of the Brooklyn Bridge and the Crests from decades earlier. Today, Vol. 2 followed in 2009. In March 2010 Johnny Maestro died of cancer at his home in Cape Coral, FL; he was 70 years old. ~ Jason Ankeny

Tracklist:
1 Blessed Is the Rain 03:19
2 Welcome Me Love 02:17
3 Which Way to Nowhere 03:24
4 Free as the Wind 02:40
5 Glad She's a Woman 02:59
6 Space Odessey-2001 01:23
7 Requiem 03:51
8 I've Been Lonely Too Long 04:08
9 Worst That Could Happen 03:08
10 Piece of My Heart 03:08
11 Your Kite, My Kite 02:32

Personnel:
Johnny Maestro — lead vocals
Richie Macioce — guitar
Jimmy Rosica — bass
Carolyn Wood — organ
Shelly Davis — piano, trumpet
Joe Ruvio — saxophone
Artie Cantanzarita — drums
Fred Ferrara, Les Cauchi, Mike Gregorio — vocals
Wes Farrell — producer

foobar2000 1.3.7 / Dynamic Range Meter 1.1.1
log date: 2019-06-30 15:03:19

––––––––––––––––––––––––––––––––––––––––
Analyzed: The Brooklyn Bridge / Brooklyn Bridge
––––––––––––––––––––––––––––––––––––––––

DR Peak RMS Duration Track
––––––––––––––––––––––––––––––––––––––––
DR8 -2.79 dB -14.13 dB 3:20 01-Blessed Is the Rain
DR10 -0.01 dB -14.71 dB 2:18 02-Welcome Me Love
DR10 -1.17 dB -14.18 dB 3:25 03-Which Way to Nowhere
DR10 -0.84 dB -13.33 dB 2:40 04-Free as the Wind
DR10 -5.18 dB -18.13 dB 2:59 05-Glad She's a Woman
DR11 -2.28 dB -16.15 dB 1:23 06-Space Odessey-2001
DR10 -1.51 dB -16.11 dB 3:51 07-Requiem
DR12 -0.25 dB -15.71 dB 4:08 08-I've Been Lonely Too Long
DR11 -0.89 dB -17.53 dB 3:09 09-Worst That Could Happen
DR10 -2.18 dB -15.25 dB 3:08 10-Piece of My Heart
DR10 -0.81 dB -14.51 dB 2:33 11-Your Kite, My Kite
––––––––––––––––––––––––––––––––––––––––

Number of tracks: 11
Official DR value: DR10

Samplerate: 96000 Hz
Channels: 2
Bits per sample: 24
Bitrate: 3055 kbps
Codec: FLAC
================================================================================


Thanks to the Original customer.