The Cult - The Mail Must Go Through (1976/2021) [Official Digital Download 24/48]

Posted By: SERTiL
The Cult - The Mail Must Go Through (1976/2021) [Official Digital Download 24/48]

The Cult - The Mail Must Go Through (1976/2021)
FLAC (tracks) 24-bit/48 kHz | Time - 26:00 minutes | 306 MB
Studio Master, Official Digital Download | Artwork: Front Cover

Super rare Funk collectible from Las Vegas released on Starburst records in 1976 and although the label seems to have been based in Las Vegas the album was recorded at various studios around Hollywood. The album did appear in two different sleeve designs comprising mainly of raw funk along with some ballads this album has become more collectable in recent years.

Tracklist:
1. The Mail Must Go Through (04:06)
2. Back Pay (Part 1) (04:55)
3. It's Time (02:10)
4. Don't Give Up (02:58)
5. The Cult Theme (04:36)
6. Rider (02:30)
7. Back Pay (Part 2) (Instrumental) (04:50)

foobar2000 1.5.4 / Dynamic Range Meter 1.1.1
log date: 2021-03-28 00:04:13

––––––––––––––––––––––––––––––––––––––––
Analyzed: MAD ABOUT RECORDS / The Cult ‎– "The Mail Must Go Through"
––––––––––––––––––––––––––––––––––––––––

DR Peak RMS Duration Track
––––––––––––––––––––––––––––––––––––––––
DR10 -5.00 dB -17.72 dB 4:05 01-The Mail Must Go Through
DR11 -3.36 dB -17.54 dB 4:54 02-Back Pay
DR10 -5.88 dB -17.78 dB 2:10 03-It's Time
DR11 -3.86 dB -17.30 dB 2:57 04-Don't Give Up
DR11 -5.18 dB -17.41 dB 4:36 05-The Cult Theme
DR12 -3.18 dB -17.28 dB 2:30 06-Rider
DR11 -4.57 dB -17.70 dB 4:50 07-Instrumental Back Pay (Part 2)
––––––––––––––––––––––––––––––––––––––––

Number of tracks: 7
Official DR value: DR11

Samplerate: 48000 Hz
Channels: 2
Bits per sample: 24
Bitrate: 1623 kbps
Codec: FLAC
================================================================================


Thanks to the Original customer.