Tags
Language
Tags

Yoora Lee-Hoff & Michael Schütze - The Korean Art Song (2018) [Official Digital Download 24/96]

Posted By: SERTiL
Yoora Lee-Hoff & Michael Schütze - The Korean Art Song (2018) [Official Digital Download 24/96]

Yoora Lee-Hoff & Michael Schütze - The Korean Art Song (2018)
FLAC (tracks) 24-bit/96 kHz | Time - 71:47 minutes | 1.09 GB
Studio Master, Official Digital Download | Artwork: Digital Booklet

The songs of Korean composer Young Jo Lee, chosen by singer Yoora Lee-Hoff for her GENUIN debut, seem like enchanting ink drawings from the Far East. The fabulous coloratura soprano, accompanied by Michael Schütze on the piano, performs the little treasures with great naturalness, a beautiful sound and as clear as a bell. The spectrum of songs from all creative periods of the contemporary composer ranges from the simple, folk-like strophic song to a touch of magical post-impressionist color. Yoora Lee-Hoff sings us about silky haze and scarecrows, moonlit nights and starlight - from another world!

Tracklist:
01. 엄마야 누나야 Dearest Mommy, Dearest Sister
02. 비단안개 Silken Fog
03. 다듬이 Dadeomi
04. 새야 새야 Little Bird, Little Bird
05. 새쫓기 노래 Scarecrow Song
06. 별빛 Starlight
07. 달밤 Moonlit Night
08. 한오백년 Five Hundred Years
09. 옹헤야 Such Fun
10. 문경새재 아리랑 Moon Kyoung Saezae Arirang
11. 경상도 아리랑 Kyung Sang Do Arirang
12. 정선 엮음 아리랑 Zeong Seon Yeok-Geom Arirang
13. 청산리 벽계수야 Song of a Courtesan Whang Jinie 1"
14. 어져 내일이여 Song of a Courtesan Whang Jinie 2 — Despairing Longing
15. 춘향 옥중가 Chun Hyang in Prison
16. Agnus Dei
17. Psalm 23
18. Jesus Is the True Vine

Personnel:
Yoora Lee-Hoff, soprano
Michael Schütze, piano
Marie-Luise Kahle, horn

foobar2000 1.3.7 / Dynamic Range Meter 1.1.1
log date: 2018-12-23 16:24:01

––––––––––––––––––––––––––––––––––––––––
Analyzed: Yoora Lee-Hoff & Michael Schütze / The Korean Art Song
––––––––––––––––––––––––––––––––––––––––

DR Peak RMS Duration Track
––––––––––––––––––––––––––––––––––––––––
DR12 -0.30 dB -19.88 dB 4:08 01-Dearest Mommy, Dearest Sister
DR14 -6.22 dB -26.45 dB 4:00 02-Silken Fog
DR15 -2.83 dB -24.28 dB 3:24 03-Dadeomi
DR15 -1.44 dB -23.06 dB 3:38 04-Little Bird, Little Bird
DR15 -0.30 dB -21.44 dB 4:15 05-Scarecrow Song
DR12 -0.46 dB -24.67 dB 3:53 06-Starlight
DR15 -0.30 dB -24.71 dB 3:38 07-Moonlit Night
DR17 -1.14 dB -23.47 dB 4:13 08-Five Hundred Years
DR12 -0.30 dB -17.54 dB 4:32 09-Such Fun
DR12 -5.36 dB -22.95 dB 4:14 10-Moon Kyoung Saezae Arirang
DR13 -3.00 dB -24.14 dB 4:05 11-Kyung Sang Do Arirang
DR15 -0.30 dB -20.33 dB 5:11 12-Zeong Seon Yeok-Geom Arirang
DR14 -4.01 dB -24.29 dB 3:30 13-Song of a Courtesan "Whang Jinie 1"
DR13 -0.30 dB -21.00 dB 3:10 14-Song of a Courtesan "Whang Jinie 2 — Despairing Longing"
DR14 -2.93 dB -22.78 dB 3:52 15-Chun Hyang in Prison
DR13 -3.55 dB -23.29 dB 3:03 16-Agnus Dei
DR14 -4.06 dB -24.63 dB 5:10 17-Psalm 23
DR14 -3.85 dB -24.27 dB 4:01 18-Jesus Is the True Vine
––––––––––––––––––––––––––––––––––––––––

Number of tracks: 18
Official DR value: DR14

Samplerate: 96000 Hz
Channels: 2
Bits per sample: 24
Bitrate: 2202 kbps
Codec: FLAC
================================================================================


Thanks to the Original customer.