Tags
Language
Tags
June 2024
Su Mo Tu We Th Fr Sa
26 27 28 29 30 31 1
2 3 4 5 6 7 8
9 10 11 12 13 14 15
16 17 18 19 20 21 22
23 24 25 26 27 28 29
30 1 2 3 4 5 6

Yannick Nézet-Séguin - The Rotterdam Philharmonic Orchestra Collection (2018) [Official Digital Download 24/96]

Posted By: SERTiL
Yannick Nézet-Séguin - The Rotterdam Philharmonic Orchestra Collection (2018) [Official Digital Download 24/96]

Yannick Nézet-Séguin - The Rotterdam Philharmonic Orchestra Collection (2018)
FLAC (tracks) 24-bit/96 kHz | Time - 421:47 minutes | 6.59 GB
Studio Master, Official Digital Download | Artwork: Front Cover

This collection of previously unreleased live recordings celebrates the Rotterdam Philharmonic Orchestra’s centenary and the ten-year residency, from 2008 to 2018, of its principal conductor Yannick Nézet-Séguin.

The Rotterdam Philharmonic, under its long-term Principal Conductor Yannick Nezet-Seguin, is widely recognised as one of Europe’s most distinguished orchestras. Celebrated for its winning combination of passionate commitment, boundless energy and scintillating virtuosity, the orchestra has come a long way since its relatively humble beginnings in 1918 as a private ensemble whose members initially paid for the privilege of joining its ranks.

The arrival of Canadian maestro Yannick Nezet-Seguin in 2008 signalled a new golden era for the Rotterdam Philharmonic, as is evidenced by this outstanding set of recordings, captured live in the Doelen concert hall between 2011 and 2016 and collected together here for the first time by Deutsche Grammophon. At the end of 2017/18 season Nezet-Seguin assumes the role of Honorary Conductor, handing over the post of Principal to 29-year-old Lahav Shani.

Yannick Nézet-Séguin - The Rotterdam Philharmonic Orchestra Collection (2018) [Official Digital Download 24/96]

Rotterdam Philharmonic Orchestra & Yannick Nézet-Séguin - Shostakovich: Symphony No.4 in C Minor, Op.43 (2018)
FLAC (tracks) 24-bit/96 kHz | Time - 63:20 minutes | 1.00 GB
Studio Master, Official Digital Download | Artwork: Front Cover


Tracklist:
1. Symphony No.4 in C minor, Op.43 : 1. Allegretto poco moderato 15:26
2. Symphony No.4 in C minor, Op.43 : 2. Presto 12:18
3. Symphony No.4 in C minor, Op.43 : 3. Moderato con moto 09:14
4. Symphony No.4 in C minor, Op.43 : 4. Largo 06:13
5. Symphony No.4 in C minor, Op.43 : 5. Allegro 20:09

Yannick Nézet-Séguin - The Rotterdam Philharmonic Orchestra Collection (2018) [Official Digital Download 24/96]

Rotterdam Philharmonic Orchestra & Yannick Nézet-Séguin - Mahler: Symphony No.10 In F Sharp (Unfinished) - Ed. Deryck Cooke (2018)
FLAC (tracks) 24-bit/96 kHz | Time - 78:09 minutes | 1.16 GB
Studio Master, Official Digital Download | Artwork: Front Cover


Tracklist:
1. Symphony No.10 in F sharp (unfinished) - Ed. Deryck Cooke : 1. Adagio 25:29
2. Symphony No.10 in F sharp (unfinished) - Ed. Deryck Cooke : 2. Scherzo 11:49
3. Symphony No.10 in F sharp (unfinished) - Ed. Deryck Cooke : 3. Purgatorio 04:17
4. Symphony No.10 in F sharp (unfinished) - Ed. Deryck Cooke : 4. Scherzo 11:43
5. Symphony No.10 in F sharp (unfinished) - Ed. Deryck Cooke : 5. Finale 24:51

Yannick Nézet-Séguin - The Rotterdam Philharmonic Orchestra Collection (2018) [Official Digital Download 24/96]

Rotterdam Philharmonic Orchestra & Yannick Nézet-Séguin - Beethoven: Symphony No. 8 in F Major, Op. 93 / Tchaikovsky: Francesca da Rimini, Op.32, TH 46 / Turnage: Piano Concerto (2018)
FLAC (tracks) 24-bit/96 kHz | Time - 71:39 minutes | 1.16 GB
Studio Master, Official Digital Download | Artwork: Front Cover


Tracklist:
1. Symphony No. 8 in F major, Op. 93 : 1. Allegro vivace e con brio 09:01
2. Symphony No. 8 in F major, Op. 93 : 2. Allegretto scherzando 03:51
3. Symphony No. 8 in F major, Op. 93 : 3. Tempo di menuetto 05:04
4. Symphony No. 8 in F major, Op. 93 : 4. Allegro vivace 07:35
5. Tchaikovsky: Francesca da Rimini, Op.32, TH 46 24:08
6. Piano concerto : 1. Rondo-Variations 05:01
7. Piano concerto : 2. Last Lullaby for Hans 09:01
8. Piano concerto : 3. A Grotesque Burlesque 07:58

Yannick Nézet-Séguin - The Rotterdam Philharmonic Orchestra Collection (2018) [Official Digital Download 24/96]

Rotterdam Philharmonic Orchestra & Yannick Nézet-Séguin - Bartók: Concerto For Orchestra, BB 123, Sz.116 / Dvorák: Symphony No.8 in G Major, Op.88, B.163 / Debussy: Nocturnes, L. 91 / Haydn: Symphony No.44 in E Minor, Hob.I:44 -"Mourning" (2018)
FLAC (tracks) 24-bit/96 kHz | Time - 122:00 minutes | 1.86 GB
Studio Master, Official Digital Download | Artwork: Front Cover


Tracklist:
1. Concerto For Orchestra, BB 123, Sz.116 : 1. Introduzione (Andante non troppo - Allegro vivace) 10:17
2. Concerto For Orchestra, BB 123, Sz.116 : 2. Giuoco della coppie (Allegretto scherzando) 06:47
3. Concerto For Orchestra, BB 123, Sz.116 : 3. Elegia (Andante, non troppo) 08:13
4. Concerto For Orchestra, BB 123, Sz.116 : 4. Intermezzo interrotto (Allegretto) 04:42
5. Concerto For Orchestra, BB 123, Sz.116 : 5. Finale (Pesante - Presto) 09:55
6. Symphony No.8 in G Major, Op.88, B.163 : 1. Allegro con brio 10:09
7. Symphony No.8 in G Major, Op.88, B.163 : 2. Adagio 11:23
8. Symphony No.8 in G Major, Op.88, B.163 : 3. Allegretto grazioso - Molto vivace 06:07
9. Symphony No.8 in G Major, Op.88, B.163 : 4. Allegro ma non troppo 09:57
10. Nocturnes, L. 91 : 1. Nuages. Modéré 07:51
11. Nocturnes, L. 91 : 2. Fêtes. Animé et très rythmé 06:26
12. Nocturnes, L. 91 : 3. Sirènes. Modérément animé 11:13
13. Symphony No.44 In E Minor, Hob.I:44 -"Mourning" : 1. Allegro con brio 06:06
14. Symphony No.44 In E Minor, Hob.I:44 -"Mourning" : 2. Menuetto (Allegretto) - Canone in Diapason 04:48
15. Symphony No.44 In E Minor, Hob.I:44 -"Mourning" : 3. Adagio 04:34
16. Symphony No.44 In E Minor, Hob.I:44 -"Mourning" : 4. Finale (Presto) 03:32

Yannick Nézet-Séguin - The Rotterdam Philharmonic Orchestra Collection (2018) [Official Digital Download 24/96]

Rotterdam Philharmonic Orchestra & Yannick Nézet-Séguin - Bruckner: Symphony No.8 In C Minor, WAB 108 - Version Robert Haas 1939 (2018)
FLAC (tracks) 24-bit/96 kHz | Time - 86:40 minutes | 1.39 GB
Studio Master, Official Digital Download | Artwork: Front Cover


Tracklist:
1. Symphony No.8 In C Minor, WAB 108 - Version Robert Haas 1939 : 1. Allegro moderato 16:30
2. Symphony No.8 In C Minor, WAB 108 - Version Robert Haas 1939 : 2. Scherzo: Allegro moderato 16:09
3. Symphony No.8 In C Minor, WAB 108 - Version Robert Haas 1939 : 3. Adagio: Feierlich langsam; doch nicht schleppend 28:16
4. Symphony No.8 In C Minor, WAB 108 - Version Robert Haas 1939 : 4. Finale: Feierlich, nicht schnell 25:45

foobar2000 1.3.7 / Dynamic Range Meter 1.1.1
log date: 2018-06-11 15:31:30

––––––––––––––––––––––––––––––––––––––––
Analyzed: Rotterdam Philharmonic Orchestra & Yannick Nézet-Séguin / Shostakovich: Symphony No.4 in C Minor, Op.43
––––––––––––––––––––––––––––––––––––––––

DR Peak RMS Duration Track
––––––––––––––––––––––––––––––––––––––––
DR16 -1.55 dB -24.67 dB 15:27 01-Symphony No.4 in C minor, Op.43 : 1. Allegretto poco moderato
DR17 -0.77 dB -25.70 dB 12:18 02-Symphony No.4 in C minor, Op.43 : 2. Presto
DR15 -5.71 dB -29.81 dB 9:15 03-Symphony No.4 in C minor, Op.43 : 3. Moderato con moto
DR16 -2.26 dB -26.60 dB 6:13 04-Symphony No.4 in C minor, Op.43 : 4. Largo
DR16 -0.40 dB -24.96 dB 20:09 05-Symphony No.4 in C minor, Op.43 : 5. Allegro
––––––––––––––––––––––––––––––––––––––––

Number of tracks: 5
Official DR value: DR16

Samplerate: 96000 Hz
Channels: 2
Bits per sample: 24
Bitrate: 2262 kbps
Codec: FLAC
================================================================================

foobar2000 1.3.7 / Dynamic Range Meter 1.1.1
log date: 2018-06-11 15:37:50

––––––––––––––––––––––––––––––––––––––––
Analyzed: Rotterdam Philharmonic Orchestra & Yannick Nézet-Séguin / Mahler: Symphony No.10 In F Sharp (Unfinished) - Ed. Deryck Cooke
––––––––––––––––––––––––––––––––––––––––

DR Peak RMS Duration Track
––––––––––––––––––––––––––––––––––––––––
DR16 -7.26 dB -29.59 dB 25:29 01-Symphony No.10 in F sharp (unfinished) - Ed. Deryck Cooke : 1. Adagio
DR16 -5.38 dB -27.71 dB 11:50 02-Symphony No.10 in F sharp (unfinished) - Ed. Deryck Cooke : 2. Scherzo
DR15 -9.09 dB -30.78 dB 4:18 03-Symphony No.10 in F sharp (unfinished) - Ed. Deryck Cooke : 3. Purgatorio 04_17
DR20 -0.58 dB -28.31 dB 11:43 04-Symphony No.10 in F sharp (unfinished) - Ed. Deryck Cooke : 4. Scherzo
DR22 -0.40 dB -29.81 dB 24:51 05-Symphony No.10 in F sharp (unfinished) - Ed. Deryck Cooke : 5. Finale
––––––––––––––––––––––––––––––––––––––––

Number of tracks: 5
Official DR value: DR18

Samplerate: 96000 Hz
Channels: 2
Bits per sample: 24
Bitrate: 2035 kbps
Codec: FLAC
================================================================================

foobar2000 1.3.7 / Dynamic Range Meter 1.1.1
log date: 2018-06-11 15:50:12

––––––––––––––––––––––––––––––––––––––––
Analyzed: Marc-Andre Hamelin, Rotterdam Philharmonic Orchestra & Yannick Nézet-Séguin / Beethoven: Symphony No. 8 in F Major, Op. 93 / Tchaikovsky: Francesca da Rimini, Op.32, TH 46 / Turnage: Piano Concerto (1-3)
Rotterdam Philharmonic Orchestra & Yannick Nézet-Séguin / Beethoven: Symphony No. 8 in F Major, Op. 93 / Tchaikovsky: Francesca da Rimini, Op.32, TH 46 / Turnage: Piano Concerto (4-8)
––––––––––––––––––––––––––––––––––––––––

DR Peak RMS Duration Track
––––––––––––––––––––––––––––––––––––––––
DR16 -3.29 dB -25.38 dB 5:01 06-Piano concerto : 1. Rondo-Variations
DR16 -11.68 dB -34.19 dB 9:02 07-Piano concerto : 2. Last Lullaby for Hans
DR20 -1.13 dB -26.27 dB 7:59 08-Piano concerto : 3. A Grotesque Burlesque
DR15 -2.63 dB -23.08 dB 9:02 01-Symphony No. 8 in F major, Op. 93 : 1. Allegro vivace e con brio
DR15 -9.03 dB -30.76 dB 3:51 02-Symphony No. 8 in F major, Op. 93 : 2. Allegretto scherzando
DR13 -8.28 dB -26.15 dB 5:05 03-Symphony No. 8 in F major, Op. 93 : 3. Tempo di menuetto
DR14 -3.63 dB -23.72 dB 7:35 04-Symphony No. 8 in F major, Op. 93 : 4. Allegro vivace
DR17 -0.42 dB -22.96 dB 24:09 05-Francesca da Rimini, Op.32, TH 46
––––––––––––––––––––––––––––––––––––––––

Number of tracks: 8
Official DR value: DR16

Samplerate: 96000 Hz
Channels: 2
Bits per sample: 24
Bitrate: 2305 kbps
Codec: FLAC
================================================================================

foobar2000 1.3.7 / Dynamic Range Meter 1.1.1
log date: 2018-06-11 16:10:49

––––––––––––––––––––––––––––––––––––––––
Analyzed: Collegium Vocale Gent, Rotterdam Philharmonic Orchestra & Yannick Nézet-Séguin / Bartók: Concerto For Orchestra, BB 123, Sz.116 / Dvorák: Symphony No.8 in G Major, Op.88, B.163 / Debussy: Nocturnes, L. 91 / Haydn: Symphony No.44 in E Minor, Hob.I:44 -"Mourning" (1)
Rotterdam Philharmonic Orchestra & Yannick Nézet-Séguin / Bartók: Concerto For Orchestra, BB 123, Sz.116 / Dvorák: Symphony No.8 in G Major, Op.88, B.163 / Debussy: Nocturnes, L. 91 / Haydn: Symphony No.44 in E Minor, Hob.I:44 -"Mourning" (2-16)
––––––––––––––––––––––––––––––––––––––––

DR Peak RMS Duration Track
––––––––––––––––––––––––––––––––––––––––
DR13 -8.85 dB -29.23 dB 11:13 12-Nocturnes, L. 91 : 3. Sirenes. Moderement anime
DR18 -0.58 dB -25.49 dB 10:18 01-Concerto For Orchestra, BB 123, Sz.116 : 1. Introduzione (Andante non troppo - Allegro vivace)
DR14 -12.56 dB -32.49 dB 6:47 02-Concerto For Orchestra, BB 123, Sz.116 : 2. Giuoco della coppie (Allegretto scherzando)
DR16 -2.66 dB -26.20 dB 8:13 03-Concerto For Orchestra, BB 123, Sz.116 : 3. Elegia (Andante, non troppo)
DR16 -5.87 dB -31.11 dB 4:43 04-Concerto For Orchestra, BB 123, Sz.116 : 4. Intermezzo interrotto (Allegretto)
DR16 -0.40 dB -22.79 dB 9:56 05-Concerto For Orchestra, BB 123, Sz.116 : 5. Finale (Pesante - Presto)
DR15 -1.26 dB -23.97 dB 10:09 06-Symphony No.8 in G Major, Op.88, B.163 : 1. Allegro con brio
DR15 -3.57 dB -27.55 dB 11:24 07-Symphony No.8 in G Major, Op.88, B.163 : 2. Adagio
DR16 -8.25 dB -29.60 dB 6:07 08-Symphony No.8 in G Major, Op.88, B.163 : 3. Allegretto grazioso - Molto vivace
DR16 -0.55 dB -23.93 dB 9:57 09-Symphony No.8 in G Major, Op.88, B.163 : 4. Allegro ma non troppo
DR18 -10.73 dB -36.04 dB 7:51 10-Nocturnes, L. 91 : 1. Nuages. Modere
DR14 -1.21 dB -23.07 dB 6:27 11-Nocturnes, L. 91 : 2. Fetes. Anime et tres rythme
DR13 -7.14 dB -27.39 dB 6:07 13-Symphony No.44 In E Minor, Hob.I:44 - "Mourning" : 1. Allegro con brio
DR12 -10.39 dB -28.84 dB 4:49 14-Symphony No.44 In E Minor, Hob.I:44 - "Mourning" : 2. Menuetto (Allegretto) - Canone in Diapason
DR12 -14.02 dB -33.13 dB 4:35 15-Symphony No.44 In E Minor, Hob.I:44 - "Mourning" : 3. Adagio
DR16 -3.12 dB -24.02 dB 3:33 16-Symphony No.44 In E Minor, Hob.I:44 - "Mourning" : 4. Finale (Presto)
––––––––––––––––––––––––––––––––––––––––

Number of tracks: 16
Official DR value: DR15

Samplerate: 96000 Hz
Channels: 2
Bits per sample: 24
Bitrate: 2471 kbps
Codec: FLAC
================================================================================

foobar2000 1.3.7 / Dynamic Range Meter 1.1.1
log date: 2018-06-11 16:19:12

––––––––––––––––––––––––––––––––––––––––
Analyzed: Rotterdam Philharmonic Orchestra & Yannick Nézet-Séguin / Bruckner: Symphony No.8 In C Minor, WAB 108 - Version Robert Haas 1939
––––––––––––––––––––––––––––––––––––––––

DR Peak RMS Duration Track
––––––––––––––––––––––––––––––––––––––––
DR14 -1.96 dB -22.16 dB 16:31 01-Symphony No.8 In C Minor, WAB 108 - Version Robert Haas 1939 : 1. Allegro moderato
DR15 -1.01 dB -23.34 dB 16:10 02-Symphony No.8 In C Minor, WAB 108 - Version Robert Haas 1939 : 2. Scherzo: Allegro moderato
DR19 -0.40 dB -26.49 dB 28:17 03-Symphony No.8 In C Minor, WAB 108 - Version Robert Haas 1939 : 3. Adagio: Feierlich langsam; doch nicht schleppend
DR14 -0.32 dB -21.20 dB 25:46 04-Symphony No.8 In C Minor, WAB 108 - Version Robert Haas 1939 : 4. Finale: Feierlich, nicht schnell
––––––––––––––––––––––––––––––––––––––––

Number of tracks: 4
Official DR value: DR16

Samplerate: 96000 Hz
Channels: 2
Bits per sample: 24
Bitrate: 2353 kbps
Codec: FLAC
================================================================================


Thanks to the Original customer.