Tags
Language
Tags

Led Zeppelin - The Song Remains The Same (Remastered) (1976/2018) [Official Digital Download 24/96]

Posted By: SERTiL
Led Zeppelin - The Song Remains The Same (Remastered) (1976/2018) [Official Digital Download 24/96]

Led Zeppelin - The Song Remains The Same (Remastered) (1976/2018)
FLAC (tracks) 24-bit/96 kHz | Time - 131:47 minutes | 2.75 GB
Studio Master, Official Digital Download | Artwork: Front Cover

Led Zeppelin conclude their reissue campaign with a new edition of the soundtrack to the concert film "The Song Remains The Same", originally released in 1976 and featuring newly remastered audio supervised by Jimmy Page.

The album was recorded in July 1973 at Madison Square Garden in New York City, and the new version is due to be released on September 7th 2018 in pristine high-resolution sound quality.

"The Song Remains The Same" is the soundtrack to the legendary concert film of the same name, which was released in 1976. The performances in the film were recorded July 27-29, 1973 at Madison Square Garden during the band's tour for its then-current studio album, Houses Of The Holy. The double album collections are packed with electrifying live versions of Zep classics like "Rock and Roll," "Stairway To Heaven," "No Quarter," "Moby Dick," "Dazed And Confused," and "Celebration Day."

Tracklist:
01. Rock And Roll (Remastered) 03:56
02. Celebration Day (Remastered) 03:37
03. Black Dog (Remastered) 03:46
04. Over The Hills And Far Away (Remastered) 06:11
05. Misty Mountain Hop (Remastered) 04:43
06. Since I've Been Loving You (Remastered) 08:23
07. No Quarter (Remastered) 10:38
08. The Song Remains The Same (Remastered) 05:39
09. The Rain Song (Remastered) 08:20
10. The Ocean (Remastered) 05:16
11. Dazed And Confused (Remastered) 29:18
12. Stairway To Heaven (Remastered) 10:53
13. Moby Dick (Remastered) 11:02
14. Heartbreaker (Remastered) 06:19
15. Whole Lotta Love (Remastered) 13:52

Digitally remastered

foobar2000 1.3.7 / Dynamic Range Meter 1.1.1
log date: 2018-09-07 01:40:21

––––––––––––––––––––––––––––––––––––––––
Analyzed: Led Zeppelin / The Song Remains The Same (Remastered)
––––––––––––––––––––––––––––––––––––––––

DR Peak RMS Duration Track
––––––––––––––––––––––––––––––––––––––––
DR9 -0.05 dB -9.51 dB 3:55 01-Rock And Roll (Remastered)
DR8 -0.08 dB -8.89 dB 3:38 02-Celebration Day (Remastered)
DR9 -0.05 dB -10.20 dB 3:46 03-Black Dog (Remastered)
DR9 -0.12 dB -10.76 dB 6:11 04-Over The Hills And Far Away (Remastered)
DR9 -0.10 dB -9.25 dB 4:43 05-Misty Mountain Hop (Remastered)
DR9 -0.12 dB -10.85 dB 8:24 06-Since I've Been Loving You (Remastered)
DR9 -0.11 dB -12.01 dB 10:38 07-No Quarter (Remastered)
DR9 -0.11 dB -9.74 dB 5:40 08-The Song Remains The Same (Remastered)
DR8 -0.11 dB -11.50 dB 8:21 09-The Rain Song (Remastered)
DR9 -0.05 dB -10.70 dB 5:14 10-The Ocean (Remastered)
DR9 -0.05 dB -11.41 dB 29:17 11-Dazed And Confused (Remastered)
DR10 -0.11 dB -12.36 dB 10:53 12-Stairway To Heaven (Remastered)
DR9 -0.11 dB -12.50 dB 11:02 13-Moby Dick (Remastered)
DR10 -0.12 dB -11.86 dB 6:20 14-Heartbreaker (Remastered)
DR9 -0.11 dB -10.81 dB 13:50 15-Whole Lotta Love (Remastered)
––––––––––––––––––––––––––––––––––––––––

Number of tracks: 15
Official DR value: DR9

Samplerate: 96000 Hz
Channels: 2
Bits per sample: 24
Bitrate: 3035 kbps
Codec: FLAC
================================================================================


Thanks to the Original customer.