John Williams - The Spielberg/Williams Collaboration Part III (2017) [Official Digital Download 24/96]

Posted By: SERTiL
John Williams - The Spielberg/Williams Collaboration Part III (2017) [Official Digital Download 24/96]

John Williams - The Spielberg/Williams Collaboration Part III (2017)
FLAC (tracks) 24-bit/96 kHz | Time - 74:17 minutes | 1.34 GB
Studio Master, Official Digital Download | Artwork: Front Cover

Over the 90-year history of sound film, there have been a handful of instances where a director and a composer have formed a longtime partnership that resulted in a series of classical scores, creating music that stands the test of time. None, however, have been as long or as fruitful as the 43-year collaboration of Steven Spielberg and John Williams. None have encompassed such a wide range of subject matter or, more significantly, have had such an enormous impact on worldwide popular culture. From the ominous shark signature of Jaws to the five-note alien greeting of Close Encounters of the Third Kind; from the heroic march of Raiders of the Lost Ark to the moving themes for Schindler’s List the music Williams has written for more than two dozen Spielberg projects has not only served them brilliantly but entered the wider public consciousness.

Twenty-five years ago, Sony Classical began charting the Spielberg-Williams collaboration, recording two discs of their greatest hits. For this new release, John Williams & Steven Spielberg: The Ultimate Collection, these two CDs, The Spielberg/Williams Collaboration and Williams on Williams: The Classic Spielberg Scores, are included along with newly arranged and recorded material from the past two decades of their additional movie scores, The Spielberg/Williams Collaboration Part III, and a newly filmed bonus DVD documentary film, Steven Spielberg & John Williams: The Adventure Continues.

With a record fifty Academy Award® nominations (more than any other composer) Williams has demonstrated, again and again, his ability to connect with audiences, both in the movie theater and in the concert hall. Seventeen of those nominations, and three of Williams’ five Oscar® wins (Jaws, E.T. and Schindler’s List) have been for Spielberg films. The sheer variety of music, the depth of compositional skill on display, the powerful emotions that it evokes, makes John Williams & Steven Spielberg: The Ultimate Collection an extraordinary accomplishment. This is the work of one of America’s greatest composers, inspired by the work of one of America s greatest filmmakers.

TRACKLIST
01. The Adventures of Mutt from "Indiana Jones and The Kingdom of the Crystal Skull"
02. Dry Your Tears, Afrika from "Amistad"
03. The BFG from "The BFG"
04. With Malice Toward None from "Lincoln"
05. The Duel from "The Adventures of Tintin"
06. A New Beginning from "Minority Report"
07. Escapades for Alto Saxophone and Orchestra from "Catch Me If You Can": Movement 1: Closing In
08. Escapades for Alto Saxophone and Orchestra from "Catch Me If You Can": Movement 2: Reflections
09. Escapades for Alto Saxophone and Orchestra from "Catch Me If You Can": Movement 3: Joy Ride
10. Marion's Theme from "Raiders of the Lost Ark"
11. Hymn to the Fallen from "Saving Private Ryan"
12. Dartmoor, 1912 from "War Horse"
13. Viktor's Tale from "The Terminal"
14. Prayer for Peace from "Munich"
15. Immigration and Building from "The Unfinished Journey"
16. With Malice Toward None from "Lincoln" (Alternate Version)

foobar2000 1.3.7 / Dynamic Range Meter 1.1.1
log date: 2017-09-09 14:33:14

––––––––––––––––––––––––––––––––––––––––
Analyzed: John Williams / The Spielberg/Williams Collaboration Part III
––––––––––––––––––––––––––––––––––––––––

DR Peak RMS Duration Track
––––––––––––––––––––––––––––––––––––––––
DR10 -0.42 dB -13.81 dB 3:35 01-The Adventures of Mutt from "Indiana Jones and The Kingdom of the Crystal Skull"
DR11 -0.50 dB -14.47 dB 3:40 02-Dry Your Tears, Afrika from "Amistad"
DR14 -0.50 dB -19.20 dB 7:29 03-The BFG from "The BFG"
DR13 -0.82 dB -20.80 dB 4:43 04-With Malice Toward None from "Lincoln"
DR12 -0.49 dB -16.32 dB 3:10 05-The Duel from "The Adventures of Tintin"
DR12 -2.79 dB -20.10 dB 3:37 06-A New Beginning from "Minority Report"
DR14 -0.50 dB -19.38 dB 3:02 07-Escapades for Alto Saxophone and Orchestra from "Catch Me If You Can": Movement 1: Closing In
DR12 -3.59 dB -19.83 dB 7:38 08-Escapades for Alto Saxophone and Orchestra from "Catch Me If You Can": Movement 2: Reflections
DR10 -0.48 dB -14.37 dB 5:33 09-Escapades for Alto Saxophone and Orchestra from "Catch Me If You Can": Movement 3: Joy Ride
DR12 -0.50 dB -17.92 dB 3:58 10-Marion's Theme from "Raiders of the Lost Ark"
DR11 -0.50 dB -17.44 dB 4:19 11-Hymn to the Fallen from "Saving Private Ryan"
DR12 -0.50 dB -18.35 dB 6:54 12-Dartmoor, 1912 from "War Horse"
DR12 -0.42 dB -17.48 dB 4:32 13-Viktor's Tale from "The Terminal"
DR12 -0.96 dB -18.71 dB 3:33 14-Prayer for Peace from "Munich"
DR9 0.00 dB -13.79 dB 5:22 15-Immigration and Building from "The Unfinished Journey"
DR11 -0.84 dB -18.55 dB 3:21 16-With Malice Toward None from "Lincoln" (Alternate Version)
––––––––––––––––––––––––––––––––––––––––

Number of tracks: 16
Official DR value: DR12

Samplerate: 96000 Hz
Channels: 2
Bits per sample: 24
Bitrate: 2641 kbps
Codec: FLAC
================================================================================


Thanks to the Original customer.