Tags
Language
Tags

The Aeolians & Jason Max Ferdinand - The Aeolians (2020) [Official Digital Download 24/96]

Posted By: pyatak
The Aeolians & Jason Max Ferdinand - The Aeolians (2020) [Official Digital Download 24/96]

The Aeolians & Jason Max Ferdinand - The Aeolians (2020) [Official Digital Download 24/96]
FLAC (tracks) 24-bit/96 kHz | Front Cover | Time - 01:18:24 minutes | 1,2 GB
Classical | Label: GIA ChoralWorks, Official Digital Download

Jason Max Ferdinand is an Associate Professor and Director of Choral Activities at Oakwood University where he conducts the Aeolians of Oakwood University and the University Chorale, Voices. He also conducts the string ensemble and teaches theory and advance choral conducting. A native of Trinidad & Tobago, Ferdinand received his Bachelor of Arts degree in piano from the Oakwood College (now Oakwood University) (1999), the Master of Arts in Choral Conducting from Morgan State University (2001), and the Doctor of Musical Arts in Choral Conducting with a minor in Orchestra Conducting from the University of Maryland (2015).
As a doctoral student, Dr. Ferdinand was privileged to have studied under the heedful eyes of Dr. Edward MaClary who is a protégé of the late Robert Shaw and also studied and collaborated with Helmuth Rilling, Margaret Hillis and Robert Page. During his time at the university, he served as co-director for the University Choir and was an assistant conductor for the Chamber Singers and the Maryland Chorus. In addition, he taught undergraduate conducting classes. In the summer of 2006, Ferdinand was selected to lead the Summer Choral and Orchestral Festival Program at the University of Maryland. Jim Ross, a former pupil of Kurt Masur and Leonard Bernstein served as his orchestral conducting teacher.

TRACKLIST

01. The Aeolians & Jason Max Ferdinand - Forever Music
02. The Aeolians & Jason Max Ferdinand - Smile (Arr. C. Dent for Choir)
03. The Aeolians & Jason Max Ferdinand - The Promised Land
04. The Aeolians & Jason Max Ferdinand - Tannhäuser, WWV 70: Pilgrim's Chorus (Arr. W. Dawson for Choir)
05. The Aeolians & Jason Max Ferdinand - Examine Me
06. The Aeolians & Jason Max Ferdinand - My Soul Hath Found Refuge in Thee
07. The Aeolians & Jason Max Ferdinand - The Chariot Jubilee
08. The Aeolians & Jason Max Ferdinand - The Gospel Train (Arr. K. Burton for Choir)
09. The Aeolians & Jason Max Ferdinand - We Shall Overcome (Arr. R. Gibson for Choir)
10. The Aeolians & Jason Max Ferdinand - We Remember Them
11. The Aeolians & Jason Max Ferdinand - Shout for Joy (Version for Choir & Orchestra)
12. The Aeolians & Jason Max Ferdinand - When I Lay Me Down to Sleep (Version for Choir & Orchestra)

foobar2000 1.3.16 / Dynamic Range Meter 1.1.1
log date: 2020-08-05 07:53:35

––––––––––––––––––––––––––––––––––––––––
Analyzed: The Aeolians & Jason Max Ferdinand / The Aeolians
––––––––––––––––––––––––––––––––––––––––

DR Peak RMS Duration Track
––––––––––––––––––––––––––––––––––––––––
DR9 -1.00 dB -12.86 dB 5:18 01-Forever Music
DR10 -1.00 dB -15.24 dB 4:29 02-Smile (Arr. C. Dent for Choir)
DR7 -1.00 dB -11.52 dB 6:18 03-The Promised Land
DR9 -1.00 dB -14.14 dB 5:41 04-Tannhäuser, WWV 70: Pilgrim's Chorus (Arr. W. Dawson for Choir)
DR7 -1.00 dB -11.38 dB 3:35 05-Examine Me
DR10 -1.00 dB -14.79 dB 5:29 06-My Soul Hath Found Refuge in Thee
DR10 -1.00 dB -15.44 dB 14:01 07-The Chariot Jubilee
DR10 -1.00 dB -14.70 dB 1:42 08-The Gospel Train (Arr. K. Burton for Choir)
DR10 -1.00 dB -15.67 dB 6:31 09-We Shall Overcome (Arr. R. Gibson for Choir)
DR9 -1.00 dB -14.82 dB 7:12 10-We Remember Them
DR8 -1.00 dB -12.10 dB 13:31 11-Shout for Joy (Version for Choir & Orchestra)
DR11 -1.61 dB -17.71 dB 4:38 12-When I Lay Me Down to Sleep (Version for Choir & Orchestra)
––––––––––––––––––––––––––––––––––––––––

Number of tracks: 12
Official DR value: DR9

Samplerate: 96000 Hz
Channels: 2
Bits per sample: 24
Bitrate: 2054 kbps
Codec: FLAC
================================================================================



Thanks to the Original customer.