Tags
Language
Tags

The Flying Burrito Brothers - The Flying Burrito Brothers (1971/2021) [Official Digital Download 24/96]

Posted By: pyatak
The Flying Burrito Brothers - The Flying Burrito Brothers (1971/2021) [Official Digital Download 24/96]

The Flying Burrito Brothers - The Flying Burrito Brothers (1971/2021) [Official Digital Download 24/96]
FLAC (tracks) 24-bit/96 kHz | Front Cover | Time - 36:06 minutes | 744 MB
Country Rock | Label: A&M, Official Digital Download

The Flying Burrito Bros is the third album by the country rock group, The Flying Burrito Brothers, released in the spring of 1971. Before recording sessions for the album began, Chris Hillman fired Gram Parsons from the band, leaving Hillman and "Sneaky" Pete Kleinow as the only original continuing members. In Parsons' place, the band hired a young unknown musician named Rick Roberts, who later was the primary lead singer of Firefall. Guitarist Bernie Leadon would also leave the band shortly after the album's release, going on to co-found the Eagles.

Over the winter of 1970 to 1971 the band returned to Sunset Studios to record their third album. With Jim Dickson again the producer, assisted by Bob Hughes, the group developed original pieces mainly from Chris Hillman and Rick Roberts, along with a revisitation of a Bob Dylan composition. Several outtakes from the recording sessions later appeared on several compilations following the band's demise. Following the release of the album, further personnel changes occurred including Kleinow departing to focus solely on session recordings.

TRACKLIST

1. The Flying Burrito Brothers - White Line Fever
2. The Flying Burrito Brothers - Colorado
3. The Flying Burrito Brothers - Hand To Mouth
4. The Flying Burrito Brothers - Tried So Hard
5. The Flying Burrito Brothers - Just Can't Be
6. The Flying Burrito Brothers - To Ramona
7. The Flying Burrito Brothers - Four Days Of Rain
8. The Flying Burrito Brothers - Can't You Hear Me Calling
9. The Flying Burrito Brothers - All Alone
10. The Flying Burrito Brothers - Why Are You Crying

foobar2000 1.6.2 / Dynamic Range Meter 1.1.1
log date: 2021-02-23 08:58:54

––––––––––––––––––––––––––––––––––––––––
Analyzed: The Flying Burrito Brothers / The Flying Burrito Brothers
––––––––––––––––––––––––––––––––––––––––

DR Peak RMS Duration Track
––––––––––––––––––––––––––––––––––––––––
DR12 -0.60 dB -14.26 dB 3:17 01-White Line Fever
DR11 -0.60 dB -14.55 dB 4:53 02-Colorado
DR11 -0.85 dB -15.47 dB 3:47 03-Hand To Mouth
DR10 -0.90 dB -13.51 dB 3:11 04-Tried So Hard
DR11 -0.90 dB -14.34 dB 5:01 05-Just Can't Be
DR11 -0.62 dB -13.82 dB 3:40 06-To Ramona
DR11 -0.61 dB -14.07 dB 3:40 07-Four Days Of Rain
DR12 -0.60 dB -14.45 dB 2:24 08-Can't You Hear Me Calling
DR10 -0.60 dB -14.74 dB 3:34 09-All Alone
DR12 -0.60 dB -15.29 dB 3:07 10-Why Are You Crying
––––––––––––––––––––––––––––––––––––––––

Number of tracks: 10
Official DR value: DR11

Samplerate: 96000 Hz
Channels: 2
Bits per sample: 24
Bitrate: 2854 kbps
Codec: FLAC
================================================================================



Thanks to the Original customer.