The Nite-Liters - The Nite-Liters (Remastered) (1970/2020) [Official Digital Download 24/192]

Posted By: pyatak
The Nite-Liters - The Nite-Liters (Remastered) (1970/2020) [Official Digital Download 24/192]

The Nite-Liters - The Nite-Liters (Remastered) (1970/2020) [Official Digital Download 24/192]
FLAC (tracks) 24-bit/192 kHz | Front Cover | Time - 42:35 minutes | 1,59 GB
R&B, Soul | Label: RCA/Legacy, Official Digital Download

The Nite-Liters is the debut album by the Louisville, Kentucky group The Nite-Liters, the instrumental ensemble offshoot of New Birth featuring Tony Churchill, James Baker, Robin Russell, Austin Lander, Robert "Lurch" Jackson, Leroy Taylor, Charlie Hearndon, Bruce Marshall and Nathaniel "Nebs" Neblett. Released in 1970 on RCA Records. Produced by mentor Harvey Fuqua.

TRACKLIST

01. The Nite-Liters - Get Back Buddy
02. The Nite-Liters - Stuff-n-it
03. The Nite-Liters - Con-Funk-Shun
04. The Nite-Liters - The Heckler
05. The Nite-Liters - Cherish Every Precious Moment
06. The Nite-Liters - Pretty Words Don't Mean a Thing (Lie to Me)
07. The Nite-Liters - Down and Dirty
08. The Nite-Liters - Nothing (Can Make Me Love You More Than I Do)
09. The Nite-Liters - Itchy Brother
10. The Nite-Liters - Horny Man
11. The Nite-Liters - Snap Your Twig
12. The Nite-Liters - Eleanor Rigby

foobar2000 1.6.2 / Dynamic Range Meter 1.1.1
log date: 2020-12-24 15:17:24

––––––––––––––––––––––––––––––––––––––––
Analyzed: The Nite-Liters / The Nite-Liters (Remastered)
––––––––––––––––––––––––––––––––––––––––

DR Peak RMS Duration Track
––––––––––––––––––––––––––––––––––––––––
DR13 -0.35 dB -14.69 dB 3:17 01-Get Back Buddy
DR13 -0.21 dB -14.36 dB 2:39 02-Stuff-n-it
DR12 -0.40 dB -15.39 dB 4:50 03-Con-Funk-Shun
DR11 -0.59 dB -13.90 dB 4:00 04-The Heckler
DR11 -1.49 dB -14.45 dB 3:06 05-Cherish Every Precious Moment
DR12 -0.82 dB -15.35 dB 2:37 06-Pretty Words Don't Mean a Thing (Lie to Me)
DR12 -0.12 dB -14.73 dB 2:58 07-Down and Dirty
DR13 -0.30 dB -14.80 dB 3:38 08-Nothing (Can Make Me Love You More Than I Do)
DR13 -0.29 dB -14.15 dB 3:06 09-Itchy Brother
DR13 -0.24 dB -14.47 dB 3:18 10-Horny Man
DR12 -0.74 dB -14.21 dB 3:28 11-Snap Your Twig
DR12 -1.00 dB -14.63 dB 5:37 12-Eleanor Rigby
––––––––––––––––––––––––––––––––––––––––

Number of tracks: 12
Official DR value: DR12

Samplerate: 192000 Hz
Channels: 2
Bits per sample: 24
Bitrate: 5318 kbps
Codec: FLAC
================================================================================



Thanks to the Original customer.