The Players Association - Let Your Body Go! (2020) [Official Digital Download 24/96]

Posted By: pyatak
The Players Association - Let Your Body Go! (2020) [Official Digital Download 24/96]

The Players Association - Let Your Body Go! (2020) [Official Digital Download 24/96]
FLAC (tracks) 24-bit/96 kHz | Front Cover | Time - 35:07 minutes | 802 MB
Funk | Label: Craft Recordings, Official Digital Download

Led by drummer/arranger Chris Hills, the Players Association was an obscure late-'70s, early-'80s outfit that specialized in a jazz-influenced style of disco-funk. Major jazz musicians like Michael Brecker, David Sanborn, Joe Farrell, and Tom Harrell appeared on its albums, but the New York band never catered to jazz's hardcore; its main focus was disco-funk with jazz overtones, although the Association occasionally detoured into instrumental jazz-pop and quiet storm/NAC music. The Association never became well known, and its recordings received very little radio airplay; however, it did enjoy a small underground following among danceclub DJs. The Players Association signed with Vanguard in 1977, and the band recorded five albums before calling it quits in 1981: 1977's The Players Association, 1978's Born to Dance, 1979's Turn the Music Up! 1980's We Got the Groove, and 1981's Let Your Body Go.

TRACKLIST

1. The Players Association - Get On Up Now
2. The Players Association - Groovin’ On Home
3. The Players Association - Let Your Body Go!
4. The Players Association - R&B-Bop-Pop
5. The Players Association - The Things You Get Me To Do
6. The Players Association - Life Is Just A Song

foobar2000 1.3.16 / Dynamic Range Meter 1.1.1
log date: 2020-06-30 14:39:19

––––––––––––––––––––––––––––––––––––––––
Analyzed: The Players Association / Let Your Body Go!
––––––––––––––––––––––––––––––––––––––––

DR Peak RMS Duration Track
––––––––––––––––––––––––––––––––––––––––
DR12 -0.28 dB -13.15 dB 5:52 01-Get On Up Now
DR14 -0.28 dB -15.46 dB 5:24 02-Groovin’ On Home
DR12 -0.29 dB -13.95 dB 5:31 03-Let Your Body Go!
DR11 -0.29 dB -12.95 dB 5:59 04-R&B-Bop-Pop
DR12 -0.28 dB -14.18 dB 6:13 05-The Things You Get Me To Do
DR12 -0.26 dB -13.47 dB 6:08 06-Life Is Just A Song
––––––––––––––––––––––––––––––––––––––––

Number of tracks: 6
Official DR value: DR12

Samplerate: 96000 Hz
Channels: 2
Bits per sample: 24
Bitrate: 3292 kbps
Codec: FLAC
================================================================================



Thanks to the Original customer.