Tags
Language
Tags

The Waterboys - Good Luck, Seeker (Deluxe) (2020) [Official Digital Download]

Posted By:
The Waterboys - Good Luck, Seeker (Deluxe) (2020) [Official Digital Download]

The Waterboys - Good Luck, Seeker (Deluxe) (2020) [Official Digital Download]
FLAC (tracks) 24-bit/44.1 kHz | Front Cover | Time - 01:23:25 minutes | 983 MB
Rock | Label: Cooking Vinyl Limited, Official Digital Download

The Waterboys will release a new album, Good Luck, Seeker in August.

This will be the band’s 14th studio album and comes hot on the heels of last year’s Where The Action Is.

The strident (and rather good) ‘My Wanderings In The Weary Land’ is the first taste of the new record – listen below.

TRACKLIST

1. The Waterboys - The Soul Singer
2. The Waterboys - (You've Got To) Kiss A Frog Or Two
3. The Waterboys - Low Down In The Broom
4. The Waterboys - Dennis Hopper
5. The Waterboys - Freak Street
6. The Waterboys - Sticky Fingers
7. The Waterboys - Why Should I Love You?
8. The Waterboys - The Golden Work
9. The Waterboys - My Wanderings In The Weary Land
10. The Waterboys - Postcard From The Celtic Dreamtime
11. The Waterboys - Good Luck, Seeker
12. The Waterboys - Beauty In Repetition
13. The Waterboys - Everchanging
14. The Waterboys - The Land Of Sunset
15. The Waterboys - The Soul Singer (inst)
16. The Waterboys - (You’ve Got To) Kiss A Frog Or Two (inst)
17. The Waterboys - Low Down In The Broom (gtr/vocal)
18. The Waterboys - Dennis Hopper (Demo)
19. The Waterboys - Why Should I Love You? (inst)
20. The Waterboys - My Wanderings In The Weary Land (vocal)
21. The Waterboys - Postcard From The Celtic Dreamtime (inst)
22. The Waterboys - Beauty In Repetition (inst)
23. The Waterboys - The Soul Singer (demo)
24. The Waterboys - The Land Of Sunset (inst)

foobar2000 1.3.16 / Dynamic Range Meter 1.1.1
log date: 2020-08-20 17:16:32

––––––––––––––––––––––––––––––––––––––––
Analyzed: The Waterboys / Good Luck, Seeker (Deluxe)
––––––––––––––––––––––––––––––––––––––––

DR Peak RMS Duration Track
––––––––––––––––––––––––––––––––––––––––
DR8 -0.80 dB -9.75 dB 4:43 01-The Soul Singer
DR10 -0.80 dB -11.88 dB 3:49 02-(You've Got To) Kiss A Frog Or Two
DR8 -0.80 dB -9.77 dB 3:05 03-Low Down In The Broom
DR9 -0.80 dB -11.45 dB 3:10 04-Dennis Hopper
DR7 -0.80 dB -8.65 dB 2:36 05-Freak Street
DR6 -1.00 dB -8.63 dB 0:46 06-Sticky Fingers
DR8 -0.80 dB -11.12 dB 5:44 07-Why Should I Love You?
DR6 -0.80 dB -7.75 dB 3:02 08-The Golden Work
DR5 -0.80 dB -6.90 dB 6:48 09-My Wanderings In The Weary Land
DR9 -0.80 dB -11.02 dB 4:11 10-Postcard From The Celtic Dreamtime
DR7 -0.80 dB -8.85 dB 2:46 11-Good Luck, Seeker
DR9 -0.85 dB -11.90 dB 1:48 12-Beauty In Repetition
DR7 -0.80 dB -9.08 dB 1:50 13-Everchanging
DR9 -0.82 dB -12.55 dB 4:28 14-The Land Of Sunset
DR8 -1.12 dB -10.19 dB 4:40 15-The Soul Singer (inst)
DR7 -1.12 dB -9.81 dB 2:47 16-(You’ve Got To) Kiss A Frog Or Two (inst)
DR9 -1.12 dB -11.00 dB 2:58 17-Low Down In The Broom (gtr/vocal)
DR8 -1.12 dB -10.21 dB 1:53 18-Dennis Hopper (Demo)
DR8 -1.12 dB -11.91 dB 5:44 19-Why Should I Love You? (inst)
DR10 -1.12 dB -12.74 dB 2:37 20-My Wanderings In The Weary Land (vocal)
DR10 -1.12 dB -12.82 dB 4:11 21-Postcard From The Celtic Dreamtime (inst)
DR10 -1.12 dB -12.60 dB 1:57 22-Beauty In Repetition (inst)
DR11 -1.12 dB -13.95 dB 3:28 23-The Soul Singer (demo)
DR10 -1.12 dB -13.13 dB 4:25 24-The Land Of Sunset (inst)
––––––––––––––––––––––––––––––––––––––––

Number of tracks: 24
Official DR value: DR8

Samplerate: 44100 Hz
Channels: 2
Bits per sample: 24
Bitrate: 1395 kbps
Codec: FLAC
================================================================================



Thanks to the Original customer.