Tobias Borsboom - Wanderer (2020) [Official Digital Download 24/96]

Posted By: pyatak
Tobias Borsboom - Wanderer (2020) [Official Digital Download 24/96]

Tobias Borsboom - Wanderer (2020) [Official Digital Download 24/96]
FLAC (tracks) 24-bit/96 kHz | Front Cover | Time - 01:18:06 minutes | 1,17 GB
Classical | Label: 7 Mountain Records, Official Digital Download

Tobias shows the listener around a private exhibition, featuring his favourite music. Although the pianist chose the pieces, Borsboom invites the audience to form their own associations between them. Against the backdrop of the theme of the wanderer, searching for meaning, he presents a wide range of works by Schubert, Chopin, Sciarrino, Liebermann, Ter Veldhuis and Vigh. Modern and classical, contemplative and animated, melodic and rhythmic: Tobias Borsboom always creates an intense atmosphere that will leave listeners breathlessly asking for more.

TRACKLIST

1. Tobias Borsboom - Saudade
2. Tobias Borsboom - Piano Sonata No. 3, Op. 82
3. Tobias Borsboom - Perpetuum mobile
4. Tobias Borsboom - Perduto in una città d'acque
5. Tobias Borsboom - Nocturne No. 4 in F Major, Op. 15-1
6. Tobias Borsboom - Nocturne No. 12 in G Major, Op. 37-2
7. Tobias Borsboom - Nocturne No. 13 in C Minor, Op. 48-1
8. Tobias Borsboom - Fantasy in C Major, Op. 15, D. 760 "Wanderer"

foobar2000 1.3.16 / Dynamic Range Meter 1.1.1
log date: 2020-07-12 18:23:34

––––––––––––––––––––––––––––––––––––––––
Analyzed: Tobias Borsboom / Wanderer
––––––––––––––––––––––––––––––––––––––––

DR Peak RMS Duration Track
––––––––––––––––––––––––––––––––––––––––
DR15 -6.29 dB -29.56 dB 6:12 01-Saudade
DR15 -0.73 dB -21.43 dB 16:58 02-Piano Sonata No. 3, Op. 82
DR14 -0.51 dB -19.75 dB 6:37 03-Perpetuum mobile
DR21 -13.51 dB -40.65 dB 8:10 04-Perduto in una città d'acque
DR14 -5.04 dB -25.73 dB 4:53 05-Nocturne No. 4 in F Major, Op. 15-1
DR15 -6.32 dB -26.44 dB 6:36 06-Nocturne No. 12 in G Major, Op. 37-2
DR13 -2.06 dB -20.60 dB 6:25 07-Nocturne No. 13 in C Minor, Op. 48-1
DR14 -0.50 dB -20.32 dB 22:20 08-Fantasy in C Major, Op. 15, D. 760 "Wanderer"
––––––––––––––––––––––––––––––––––––––––

Number of tracks: 8
Official DR value: DR15

Samplerate: 96000 Hz
Channels: 2
Bits per sample: 24
Bitrate: 2215 kbps
Codec: FLAC
================================================================================



Thanks to the Original customer.