Tags
Language
Tags

Tony Coe & John Horler - Dancing in the Dark (Live) (2021) [Official Digital Download 24/96]

Posted By: pyatak
Tony Coe & John Horler - Dancing in the Dark (Live) (2021) [Official Digital Download 24/96]

Tony Coe & John Horler - Dancing in the Dark (Live) (2021) [Official Digital Download 24/96]
FLAC (tracks) 24-bit/96 kHz | Front Cover | Time - 53:03 minutes | 1,02 GB
Jazz | Label: Gearbox Records, Official Digital Download

Piano and clarinet duo albums are few and far between within the jazz canon. In the case of Dancing in the Dark, versatile horn player Tony Coe chose to stick to the clarinet as his saxophone case was too heavy, or so that's how pianist John Horler recounts it. Our performance in question takes place at St Michael's Church, Appleby in 2007 as part of the annual Appleby Jazz Festival. The setting is warm and intimate as is the church acoustic, a perfect backdrop for the varied repertoire of standards and original compositions performed. Coe and Horler dance their way through Bill Evans' 'Person I Knew' and Cole Porter's 'Night and Day' as well as Horler's own 'Piece for Poppy', dedicated to his partner Wendy, and Coe's contrafact to "Autumn Leaves", titled 'Some Other Autumn'. Both players push and pull the well-known melodies to suit the moment yet maintain complete synergy with one another, with Horler's Bill Tatum-esque chord voicings and meandering lyrical interludes giving platform to Coe's resounding, cadenza-like improvisations.

Coe recounts this as "one of my very best performances, which would not have been possible without a partner who is one of the finest jazz pianists in the world." The respect from Horler is mutual, with him noting, "Tony was such a great player that it took sometime for me to realize that I could play a bit too…"

Their trust in each other, in the music, and in the moment, rings true with this live performance Dancing in the Dark, which finally sees the light of day on LP.

TRACKLIST

01. Tony Coe & John Horler - Re: Person I Knew (Live)
02. Tony Coe & John Horler - Night and Day (Live)
03. Tony Coe & John Horler - Body and Soul (Live)
04. Tony Coe & John Horler - Some Other Autumn (Live)
05. Tony Coe & John Horler - Piece for Poppy (Live)
06. Tony Coe & John Horler - Dancing in the Dark (Live)
07. Tony Coe & John Horler - Around in Three (Live)
08. Tony Coe & John Horler - Blue Monk (Live)

foobar2000 1.6.2 / Dynamic Range Meter 1.1.1
log date: 2021-08-12 23:58:56

––––––––––––––––––––––––––––––––––––––––
Analyzed: Tony Coe & John Horler / Dancing in the Dark (Live)
––––––––––––––––––––––––––––––––––––––––

DR Peak RMS Duration Track
––––––––––––––––––––––––––––––––––––––––
DR12 -1.10 dB -16.57 dB 6:01 01-Re: Person I Knew (Live)
DR11 -1.10 dB -14.09 dB 7:00 02-Night and Day (Live)
DR12 -1.11 dB -15.85 dB 6:46 03-Body and Soul (Live)
DR11 -0.88 dB -14.89 dB 7:23 04-Some Other Autumn (Live)
DR12 -1.10 dB -16.79 dB 5:50 05-Piece for Poppy (Live)
DR10 -1.10 dB -14.18 dB 7:22 06-Dancing in the Dark (Live)
DR10 -1.10 dB -14.26 dB 6:28 07-Around in Three (Live)
DR10 -1.10 dB -14.20 dB 6:14 08-Blue Monk (Live)
––––––––––––––––––––––––––––––––––––––––

Number of tracks: 8
Official DR value: DR11

Samplerate: 96000 Hz
Channels: 2
Bits per sample: 24
Bitrate: 2756 kbps
Codec: FLAC
================================================================================



Thanks to the Original customer.