Torleif Thedéen & Roland Pöntinen - Schnittke: Epilogue - Works for Cello and Piano (2007) [Official Digital Download 24/44.1]

Posted By: SERTiL
Torleif Thedéen & Roland Pöntinen - Schnittke: Epilogue - Works for Cello and Piano (2007) [Official Digital Download 24/44.1]

Torleif Thedéen & Roland Pöntinen - Schnittke: Epilogue - Works for Cello and Piano (2007)
FLAC (tracks) 24-bit/44.1 kHz | Time - 76:06 minutes | 655 MB
Studio Master, Official Digital Download | Artwork: Digital booklet

Alfred Schnittke’s use of the elegiac voice of the cello evokes Russian musical tradition and history. His works for the cello were to a large extent inspired by his friendship and close collaboration with the exceptional musicians Mstislav Rostropovich, Alexander Ivashkin and Natalia Gutman, to all of whom he dedicated works. Rostropovich has said about the composer: ‘As far as I am concerned, the most remarkable thing about Schnittke is his all-embracing, all-encompassing genius… he uses everything invented before him. Uses it as his palette, his colours. And it is all so organic: for example, diatonic music goes side by side with complex atonal polyphony.’ These words perfectly illustrate the works on this CD, whose stylistic breadth reflects the many facets of Schnittke’s development, including his playful engagement with historical musical styles, the continuation of the Shostakovich tradition, and his later ascetic, introspective and often solemn style. Concluding the programme is Epilogue, an arrangement by the composer of the concluding scene of his full-length ballet Peer Gynt. Subtitled ‘Out of the World’ this scene is, to quote the composer, ‘an attempt to express the shadows of the fourth dimension given to us in our present lives… a kind of beginning of a new circuit of existence.’ Torleif Thedéen and Roland Pöntinen, who with this discs give us the larger part of Schnittke’s chamber music for the cello, are long-time partners whose first joint recording for BIS was made in 1986 – entitled ‘The Russian Cello’, it incidentally included a performance of the first of Schnittke’s cello sonatas. Since then the two have appeared on a number of discs together, performing works by Prokofiev, Rachmaninov, Hindemith and Anton Webern among others. Their recording of the Chopin Sonata, coupled with works by Robert Schumann, was highly acclaimed in The Gramophone, whose critic found that the team gave ‘this wonderful music a sweep and grandeur that's immensely satisfying’.

TRACKLIST

Sonata No.1 for Cello and Piano (1978) 21'47
1. I. Largo 4'08
2. II. Presto 6'10
3. III. Largo 11'27
4. Improvisation for cello solo (1993) 10'16

Sonata No.2 for Cello and Piano (1993-94) 15'25
5. I. Senza tempo 3'47
6. II. Allegro 3'19
7. III. Largo 4'21
8. IV. Allegro 1'59
9. V. Lento 1'52

10. Musica Nostalgica for cello and piano (1992) 3'30

11. Epilogue for cello, piano and tape (from the ballet Peer Gynt, 1993) 23'49

foobar2000 1.3.7 / Замер динамического диапазона (DR) 1.1.1
Дата отчёта: 2017-03-05 17:24:19

––––––––––––––––––––––––––––––––––––––––
Анализ: Thedéen, Torleif / Schnittke - Epilogue, works for cello and piano
––––––––––––––––––––––––––––––––––––––––

DR Пики RMS Продолжительность трека
––––––––––––––––––––––––––––––––––––––––
DR13 -7.68 дБ -28.94 дБ 4:09 1/11-(Sonata No.1 for Cello and Piano (1978)) - I. Largo
DR14 -0.17 дБ -18.03 дБ 6:13 2/11-(Sonata No.1 for Cello and Piano (1978)) - II. Presto
DR16 -3.50 дБ -25.58 дБ 11:45 3/11-(Sonata No.1 for Cello and Piano (1978)) - III. Largo
DR13 -5.57 дБ -25.12 дБ 10:25 4/11-(Improvisation for cello solo (1993)) - Improvisation for cello solo (1993)
DR12 -6.36 дБ -26.57 дБ 3:49 5/11-(Sonata No.2 for Cello and Piano (1993-94)) - I. Senza tempo
DR15 -1.53 дБ -21.56 дБ 3:21 6/11-(Sonata No.2 for Cello and Piano (1993-94)) - II. Allegro
DR14 -2.87 дБ -25.86 дБ 4:23 7/11-(Sonata No.2 for Cello and Piano (1993-94)) - III. Largo
DR13 -1.27 дБ -21.92 дБ 2:00 8/11-(Sonata No.2 for Cello and Piano (1993-94)) - IV. Allegro
DR12 -22.32 дБ -40.81 дБ 2:06 9/11-(Sonata No.2 for Cello and Piano (1993-94)) - V. Lento
DR13 -8.28 дБ -27.87 дБ 3:40 10/11-(Musica Nostalgica for cello and piano (1992)) - Musica Nostalgica for cello and piano (1992)
DR16 -0.55 дБ -21.43 дБ 24:21 11/11-(Epilogue for cello, piano and tape (from the ballet Peer Gynt, 1993)) - Epilogue for cello, piano and tape (from the ballet Peer Gynt, 1993)
––––––––––––––––––––––––––––––––––––––––

Количество треков: 11
Реальные значения DR: DR14

Частота: 44100 Гц
Каналов: 2
Разрядность: 24
Битрейт: 1270 кбит/с
Кодек: FLAC
================================================================================


Thanks to the Original customer.