Touch - Tomorrow Never Comes (2021) [Official Digital Download]

Posted By: pyatak
Touch - Tomorrow Never Comes (2021) [Official Digital Download]

Touch - Tomorrow Never Comes (2021) [Official Digital Download]
FLAC (tracks) 24-bit/44.1 kHz | Front Cover | Time - 61:02 minutes | 743 MB
Hard Rock | Label: Deko Entertainment, Official Digital Download

Touch is an American band from New York City formed in 1978 with Mark Mangold (keyboards and vocals), Glenn Kithcart (drums), Craig Brooks (guitars and vocals) and Doug Howard (bass and vocals).

Touch's first album was released on Atco in the U. S. and Ariola in Europe and their first singles, "Don't You Know What Love Is" and "When The Spirit Moves You" charted on the Billboard Hot 100. "Don't You Know What Love Is" was played heavily on AOR stations in the USA at the end of the 1970s and early '80's, and also did well in the Melody Maker chart in Great Britain.

Touch was the first band to play at the inaugural Monsters of Rock Festival at Castle Donington in 1980. A live version of "Don't You Know What Love Is" appeared on the compilation LP Monsters of Rock, documenting performances at the festival.

Known for their memorable and diverse songs, stellar musicianship, lush vocal harmonies and dynamic stage performance, Touch is invariably on the list of TOP AOR Bands and their album is considered by many to be among the best AOR Melodic Rock albums of all time.

The band have now reformed to create the new album "Tomorrow Never Comes", which is being hailed as their best work to date.

TRACKLIST

1. Touch - Tomorrow Never Comes
2. Touch - Let It Come
3. Touch - Swan Song
4. Touch - Try to Let Go
5. Touch - Fire and Ice
6. Touch - Trippin' Over Shadows
7. Touch - Frozen Ground
8. Touch - Lil Bit of Rock N Roll
9. Touch - Glass
10. Touch - Scream at the Sky
11. Touch - Wanna Hear You Say
12. Touch - Run For Your Life

foobar2000 1.6.2 / Dynamic Range Meter 1.1.1
log date: 2021-04-30 19:09:08

––––––––––––––––––––––––––––––––––––––––
Analyzed: Touch / Tomorrow Never Comes
––––––––––––––––––––––––––––––––––––––––

DR Peak RMS Duration Track
––––––––––––––––––––––––––––––––––––––––
DR6 -1.03 dB -7.81 dB 4:58 01-Tomorrow Never Comes
DR5 -1.02 dB -7.82 dB 4:16 02-Let It Come
DR5 -1.02 dB -8.32 dB 7:44 03-Swan Song
DR7 -1.19 dB -9.27 dB 4:49 04-Try to Let Go
DR5 -1.02 dB -7.54 dB 4:37 05-Fire and Ice
DR7 -1.03 dB -9.05 dB 4:53 06-Trippin' Over Shadows
DR4 -1.01 dB -6.85 dB 6:07 07-Frozen Ground
DR5 -1.04 dB -7.61 dB 4:21 08-Lil Bit of Rock N Roll
DR4 -1.03 dB -7.53 dB 4:16 09-Glass
DR6 -1.02 dB -8.30 dB 5:29 10-Scream at the Sky
DR5 -1.10 dB -7.88 dB 5:07 11-Wanna Hear You Say
DR5 -1.01 dB -7.08 dB 4:32 12-Run For Your Life
––––––––––––––––––––––––––––––––––––––––

Number of tracks: 12
Official DR value: DR5

Samplerate: 44100 Hz
Channels: 2
Bits per sample: 24
Bitrate: 1704 kbps
Codec: FLAC
================================================================================



Thanks to the Original customer.