Tournemire: L'orgue mystique (Aux grandes orgues de la cathédrale d'Orléans) (Remastered) (1982/2020) [24/48]

Posted By: SERTiL
Tournemire: L'orgue mystique (Aux grandes orgues de la cathédrale d'Orléans) (Remastered) (1982/2020) [24/48]

Antoine Reboulot, Bernard Foccroulle & Georges Delvallée - Tournemire: L'orgue mystique (Aux grandes orgues de la cathédrale d'Orléans) (Remastered) (1982/2020)
FLAC (tracks) 24-bit/48 kHz | Time - 90:47 minutes | 847 MB
Studio Master, Official Digital Download | Artwork: Front Cover

Charles Tournemire's huge cycle L'Orgue Mystique (written 1927-1932) is a collection of two hundred and fifty-three works for the liturgical calendar of the Catholic church as it was in his time as Organiste Titulaire of the church of St Clothilde in Paris, from 1898 to his death in 1939 (his predecessors were Gabriel Pierné and César Franck; amongst his successors was Jean Langlais). They are all based on the Gregorian chant for the day. This piece, from the Cycle de Noël, is the 'Offertoire' of the Mass for the feast of the Immaculate Conception of the Blessed Virgin Mary. Performed by Georges Delvallée on the 1880 Cavaillé-Coll organ (4/61, 72 ranks) in the Cathedral of Saint-Croix, Orléans.

Tracklist:
1. Tournemire: L'orgue mystique, Cycle après la Pentecôte, Op. 57, Office No. 29 "Dominica IV": I. Prélude à l'introït (1:24)
2. Tournemire: L'orgue mystique, Cycle après la Pentecôte, Op. 57, Office No. 29 "Dominica IV": II. Offertoire (4:58)
3. Tournemire: L'orgue mystique, Cycle après la Pentecôte, Op. 57, Office No. 29 "Dominica IV": III. Élévation (1:39)
4. Tournemire: L'orgue mystique, Cycle après la Pentecôte, Op. 57, Office No. 29 "Dominica IV": IV. Communion (2:09)
5. Tournemire: L'orgue mystique, Cycle après la Pentecôte, Op. 57, Office No. 29 "Dominica IV": V. Alleluia No. 1 (5:22)
6. Tournemire: L'orgue mystique, Cycle après la Pentecôte, Op. 57, No. 32 "Dominica VII": I. Prélude à l'introït (1:29)
7. Tournemire: L'orgue mystique, Cycle après la Pentecôte, Op. 57, No. 32 "Dominica VII": II. Offertoire (2:37)
8. Tournemire: L'orgue mystique, Cycle après la Pentecôte, Op. 57, No. 32 "Dominica VII": III. Élévation (1:18)
9. Tournemire: L'orgue mystique, Cycle après la Pentecôte, Op. 57, No. 32 "Dominica VII": IV. Communion (2:41)
10. Tournemire: L'orgue mystique, Cycle après la Pentecôte, Op. 57, No. 32 "Dominica VII": V. Alleluia No. 4 (3:53)
11. Tournemire: L'orgue mystique, Cycle de Noël, Op. 55, Office No. 4 "De Dominica infra Octavam Nativitatis": I. Prélude à l'introït (1:36)
12. Tournemire: L'orgue mystique, Cycle de Noël, Op. 55, Office No. 4 "De Dominica infra Octavam Nativitatis": II. Offertoire (4:36)
13. Tournemire: L'orgue mystique, Cycle de Noël, Op. 55, Office No. 4 "De Dominica infra Octavam Nativitatis": III. Élévation (1:19)
14. Tournemire: L'orgue mystique, Cycle de Noël, Op. 55, Office No. 4 "De Dominica infra Octavam Nativitatis": IV. Communion (2:38)
15. Tournemire: L'orgue mystique, Cycle de Noël, Op. 55, Office No. 4 "De Dominica infra Octavam Nativitatis": V. Postlude-choral (9:57)
16. Tournemire: L'orgue mystique, Cycle après la Pentecôte, Op. 57, Office No. 47 "Dominica XX": I. Prélude à l'introït (1:47)
17. Tournemire: L'orgue mystique, Cycle après la Pentecôte, Op. 57, Office No. 47 "Dominica XX": II. Offertoire (4:00)
18. Tournemire: L'orgue mystique, Cycle après la Pentecôte, Op. 57, Office No. 47 "Dominica XX": III. Élévation (1:28)
19. Tournemire: L'orgue mystique, Cycle après la Pentecôte, Op. 57, Office No. 47 "Dominica XX": IV. Communion (3:31)
20. Tournemire: L'orgue mystique, Cycle après la Pentecôte, Op. 57, Office No. 47 "Dominica XX": V. Choral alléluiatique No. 5 (6:49)
21. Tournemire: L'orgue mystique, Cycle de Pâques, Op. 56, Office No. 15 "Lætare": I. Prélude à l'introït (1:21)
22. Tournemire: L'orgue mystique, Cycle de Pâques, Op. 56, Office No. 15 "Lætare": II. Offertoire (3:17)
23. Tournemire: L'orgue mystique, Cycle de Pâques, Op. 56, Office No. 15 "Lætare": III. Élévation (1:18)
24. Tournemire: L'orgue mystique, Cycle de Pâques, Op. 56, Office No. 15 "Lætare": IV. Communion (1:52)
25. Tournemire: L'orgue mystique, Cycle de Pâques, Op. 56, Office No. 15 "Lætare": V. Postlude-fantaisie (7:24)
26. Tournemire: L'orgue mystique, Cycle de Pâques, Op. 56, Office No. 16 "Sabbato Sancto": I. Offertoire (3:16)
27. Tournemire: L'orgue mystique, Cycle de Pâques, Op. 56, Office No. 16 "Sabbato Sancto": II. Communion (2:21)
28. Tournemire: L'orgue mystique, Cycle de Pâques, Op. 56, Office No. 16 "Sabbato Sancto": III. Postlude (5:06)

Personnel:
Antoine Reboulot, organ
Bernard Foccroulle, organ
Georges Delvallée, organ
Pierre Segond, organ
Bernard Heiniger, organ

Digitally remastered

foobar2000 1.3.7 / Dynamic Range Meter 1.1.1
log date: 2020-01-16 21:44:23

––––––––––––––––––––––––––––––––––––––––
Analyzed: Antoine Reboulot, Bernard Foccroulle & Georges Delvallée / Tournemire: L'orgue mystique (Aux grandes orgues de la cathédrale d'Orléans) (Remastered)
––––––––––––––––––––––––––––––––––––––––

DR Peak RMS Duration Track
––––––––––––––––––––––––––––––––––––––––
DR9 -5.18 dB -17.25 dB 1:24 01-Tournemire: L'orgue mystique, Cycle après la Pentecôte, Op. 57, Office No. 29 "Dominica IV": I. Prélude à l'introït
DR9 -11.44 dB -25.01 dB 4:58 02-Tournemire: L'orgue mystique, Cycle après la Pentecôte, Op. 57, Office No. 29 "Dominica IV": II. Offertoire
DR9 -14.94 dB -28.26 dB 1:39 03-Tournemire: L'orgue mystique, Cycle après la Pentecôte, Op. 57, Office No. 29 "Dominica IV": III. Élévation
DR8 -9.31 dB -21.90 dB 2:09 04-Tournemire: L'orgue mystique, Cycle après la Pentecôte, Op. 57, Office No. 29 "Dominica IV": IV. Communion
DR10 -1.56 dB -16.68 dB 5:22 05-Tournemire: L'orgue mystique, Cycle après la Pentecôte, Op. 57, Office No. 29 "Dominica IV": V. Alleluia No. 1
DR10 -7.42 dB -21.42 dB 1:29 06-Tournemire: L'orgue mystique, Cycle après la Pentecôte, Op. 57, No. 32 "Dominica VII": I. Prélude à l'introït
DR11 -3.97 dB -19.27 dB 2:37 07-Tournemire: L'orgue mystique, Cycle après la Pentecôte, Op. 57, No. 32 "Dominica VII": II. Offertoire
DR8 -15.13 dB -26.52 dB 1:18 08-Tournemire: L'orgue mystique, Cycle après la Pentecôte, Op. 57, No. 32 "Dominica VII": III. Élévation
DR8 -18.59 dB -31.99 dB 2:41 09-Tournemire: L'orgue mystique, Cycle après la Pentecôte, Op. 57, No. 32 "Dominica VII": IV. Communion
DR11 -1.06 dB -17.63 dB 3:53 10-Tournemire: L'orgue mystique, Cycle après la Pentecôte, Op. 57, No. 32 "Dominica VII": V. Alleluia No. 4
DR10 -4.67 dB -22.54 dB 1:36 11-Tournemire: L'orgue mystique, Cycle de Noël, Op. 55, Office No. 4 "De Dominica infra Octavam Nativitatis": I. Prélude à l'introït
DR9 -9.62 dB -23.73 dB 4:36 12-Tournemire: L'orgue mystique, Cycle de Noël, Op. 55, Office No. 4 "De Dominica infra Octavam Nativitatis": II. Offertoire
DR8 -18.94 dB -32.42 dB 1:19 13-Tournemire: L'orgue mystique, Cycle de Noël, Op. 55, Office No. 4 "De Dominica infra Octavam Nativitatis": III. Élévation
DR8 -9.80 dB -21.77 dB 2:38 14-Tournemire: L'orgue mystique, Cycle de Noël, Op. 55, Office No. 4 "De Dominica infra Octavam Nativitatis": IV. Communion
DR12 -2.94 dB -21.71 dB 9:57 15-Tournemire: L'orgue mystique, Cycle de Noël, Op. 55, Office No. 4 "De Dominica infra Octavam Nativitatis": V. Postlude-choral
DR9 -9.18 dB -22.05 dB 1:47 16-Tournemire: L'orgue mystique, Cycle après la Pentecôte, Op. 57, Office No. 47 "Dominica XX": I. Prélude à l'introït
DR9 -10.81 dB -26.63 dB 4:00 17-Tournemire: L'orgue mystique, Cycle après la Pentecôte, Op. 57, Office No. 47 "Dominica XX": II. Offertoire
DR8 -16.10 dB -29.09 dB 1:28 18-Tournemire: L'orgue mystique, Cycle après la Pentecôte, Op. 57, Office No. 47 "Dominica XX": III. Élévation
DR8 -15.84 dB -27.61 dB 3:31 19-Tournemire: L'orgue mystique, Cycle après la Pentecôte, Op. 57, Office No. 47 "Dominica XX": IV. Communion
DR11 -1.16 dB -16.81 dB 6:49 20-Tournemire: L'orgue mystique, Cycle après la Pentecôte, Op. 57, Office No. 47 "Dominica XX": V. Choral alléluiatique No. 5
DR10 -14.28 dB -29.04 dB 1:21 21-Tournemire: L'orgue mystique, Cycle de Pâques, Op. 56, Office No. 15 "Lætare": I. Prélude à l'introït
DR9 -11.45 dB -26.15 dB 3:17 22-Tournemire: L'orgue mystique, Cycle de Pâques, Op. 56, Office No. 15 "Lætare": II. Offertoire
DR10 -17.70 dB -31.57 dB 1:18 23-Tournemire: L'orgue mystique, Cycle de Pâques, Op. 56, Office No. 15 "Lætare": III. Élévation
DR9 -8.65 dB -22.30 dB 1:52 24-Tournemire: L'orgue mystique, Cycle de Pâques, Op. 56, Office No. 15 "Lætare": IV. Communion
DR11 -2.69 dB -20.77 dB 7:24 25-Tournemire: L'orgue mystique, Cycle de Pâques, Op. 56, Office No. 15 "Lætare": V. Postlude-fantaisie
DR9 -4.46 dB -19.55 dB 3:16 26-Tournemire: L'orgue mystique, Cycle de Pâques, Op. 56, Office No. 16 "Sabbato Sancto": I. Offertoire
DR9 -8.88 dB -23.64 dB 2:21 27-Tournemire: L'orgue mystique, Cycle de Pâques, Op. 56, Office No. 16 "Sabbato Sancto": II. Communion
DR7 -7.29 dB -21.12 dB 5:06 28-Tournemire: L'orgue mystique, Cycle de Pâques, Op. 56, Office No. 16 "Sabbato Sancto": III. Postlude
––––––––––––––––––––––––––––––––––––––––

Number of tracks: 28
Official DR value: DR9

Samplerate: 48000 Hz
Channels: 2
Bits per sample: 24
Bitrate: 1250 kbps
Codec: FLAC
================================================================================


Thanks to the Original customer.