Tove Lo - Sunshine Kitty (Paw Prints Edition) (2020) [Official Digital Download]

Posted By: pyatak
Tove Lo - Sunshine Kitty (Paw Prints Edition) (2020) [Official Digital Download]

Tove Lo - Sunshine Kitty (Paw Prints Edition) (2020) [Official Digital Download]
FLAC (tracks) 24-bit/44.1 kHz | Front Cover | Time - 01:05:23 minutes | 758 MB
Electro-Pop | Label: Island Records, Official Digital Download

Tove Lo has shared new track "sadder badder cooler", released today alongside the expanded version of her 2019 LP Sunshine Kitty.

"sadder badder cooler" is the first new track from Tove Lo since releasing an English cover of Veronica Maggio’s "Jag Kommer" for Spotify Singles back in March, which also features on her expanded Sunshine Kitty album.

Speaking about the new song, Tove Lo explains, "Elvira Anderfjärd and I wrote "sadder badder cooler" after going deep about how every heart break kind of chips away a little piece of you, but it also gives you power if you let it. And how breaking it off with someone who’s bad to you is always a mixed feeling of sadness, anger and big relief. This song to me is full of glitter and power and I hope it hits heavy with my fans."

Of the album, the Swedish singer/songwriter adds, "It’s been a year since the Sunshine Kitty era started, and though everything has hit on ‘pause’ right now, it feels really amazing to tie it all together with all the songs I’m so proud of from the last year. Until I can go back out and tour this album again I hope all my fans will keep having many dance parties at home."

As well as featuring her original Sunshine Kitty tracks, the expanded version will feature her "Bikini Porn" and "Passion and Pain Taste the Same When I’m Weak" tracks that are produced by FINNEAS.
"sadder badder cooler" is out now alongside Tove Lo's Sunshine Kitty Paw Prints Edition album.

TRACKLIST

1. Tove Lo - sadder badder cooler
2. Tove Lo - Bikini Porn
3. Tove Lo - I'm Coming
4. Tove Lo - Passion and Pain Taste the Same When I’m Weak
5. Tove Lo - Gritty Pretty (Intro)
6. Tove Lo - Glad He's Gone
7. Tove Lo - Bad as the Boys
8. Tove Lo - Sweettalk my Heart
9. Tove Lo - Stay Over
10. Tove Lo - Are U gonna tell her?
11. Jax Jones - Jacques
12. Tove Lo - Mateo
13. Tove Lo - Come Undone
14. Tove Lo - Equally Lost
15. Tove Lo - Really don’t like u
16. Tove Lo - Shifted
17. Tove Lo - Mistaken
18. Tove Lo - Anywhere u go
19. Tove Lo - Are U gonna tell her? (Heavy Baile Remix)
20. Tove Lo - Sweettalk my Heart (Team Salut Remix)
21. Tove Lo - Sweettalk my Heart (Live At VEVO)
22. Tove Lo - Mistaken (Live at VEVO)

foobar2000 1.3.16 / Dynamic Range Meter 1.1.1
log date: 2020-05-22 23:41:19

––––––––––––––––––––––––––––––––––––––––
Analyzed: Jax Jones / Sunshine Kitty (1)
Tove Lo / Sunshine Kitty (2-22)
––––––––––––––––––––––––––––––––––––––––

DR Peak RMS Duration Track
––––––––––––––––––––––––––––––––––––––––
DR6 -1.29 dB -9.70 dB 3:23 11-Jacques
DR4 -0.91 dB -8.33 dB 2:51 01-sadder badder cooler
DR5 -0.87 dB -7.29 dB 2:43 02-Bikini Porn
DR8 -0.21 dB -10.41 dB 3:17 03-I'm Coming
DR7 -0.79 dB -10.01 dB 4:00 04-Passion and Pain Taste the Same When I’m Weak
DR12 -1.11 dB -16.10 dB 0:46 05-Gritty Pretty (Intro)
DR5 -0.71 dB -9.25 dB 3:16 06-Glad He's Gone
DR6 -0.70 dB -8.97 dB 3:07 07-Bad as the Boys
DR5 -0.70 dB -8.01 dB 3:00 08-Sweettalk my Heart
DR5 -0.70 dB -8.40 dB 3:09 09-Stay Over
DR5 -0.70 dB -7.44 dB 2:38 10-Are U gonna tell her?
DR4 -0.70 dB -6.51 dB 2:49 12-Mateo
DR4 -1.25 dB -6.97 dB 2:58 13-Come Undone
DR6 -0.96 dB -8.15 dB 2:15 14-Equally Lost
DR6 -0.70 dB -7.79 dB 3:45 15-Really don’t like u
DR4 -0.70 dB -6.34 dB 3:12 16-Shifted
DR5 -1.10 dB -7.72 dB 2:57 17-Mistaken
DR5 -0.70 dB -8.53 dB 3:10 18-Anywhere u go
DR5 -0.21 dB -6.53 dB 2:45 19-Are U gonna tell her? (Heavy Baile Remix)
DR5 -0.21 dB -6.81 dB 2:59 20-Sweettalk my Heart (Team Salut Remix)
DR7 -0.21 dB -9.58 dB 3:25 21-Sweettalk my Heart (Live At VEVO)
DR6 -0.21 dB -7.66 dB 3:00 22-Mistaken (Live at VEVO)
––––––––––––––––––––––––––––––––––––––––

Number of tracks: 22
Official DR value: DR6

Samplerate: 44100 Hz
Channels: 2
Bits per sample: 24
Bitrate: 1588 kbps
Codec: FLAC
================================================================================



Thanks to the Original customer.