Tags
Language
Tags
May 2024
Su Mo Tu We Th Fr Sa
28 29 30 1 2 3 4
5 6 7 8 9 10 11
12 13 14 15 16 17 18
19 20 21 22 23 24 25
26 27 28 29 30 31 1

Travis - The Invisible Band (Live At The Royal Concert Hall 2022) (2023) [Official Digital Download]

Posted By: pyatak
Travis - The Invisible Band (Live At The Royal Concert Hall 2022) (2023) [Official Digital Download]

Travis - The Invisible Band (Live At The Royal Concert Hall 2022) (2023) [Official Digital Download]
FLAC (tracks) 24-bit/48 kHz | Front Cover | Time - 56:49 minutes | 677 MB
Rock | Studio Master, Official Digital Download

Following the 20th anniversary reissue of their critically acclaimed album The Invisible Band, multi-Platinum selling Scottish rock band Travis returns with the release of a special live album The Invisible Band (Live).

The album will be released on vinyl on April 22, as part of Record Store Day 2023, and across streaming services on April 21 via Craft Recordings.

TRACKLIST

1. Travis - Sing (Live At The Royal Concert Hall / 2022)
2. Travis - Dear Diary (Live At The Royal Concert Hall / 2022)
3. Travis - Side (Live At The Royal Concert Hall / 2022)
4. Travis - Pipe Dreams (Live At The Royal Concert Hall / 2022)
5. Travis - Flowers In The Window (Live At The Royal Concert Hall / 2022)
6. Travis - The Cage (Live At The Royal Concert Hall / 2022)
7. Travis - Safe (Live At The Royal Concert Hall / 2022)
8. Travis - Follow The Light (Live At The Royal Concert Hall / 2022)
9. Travis - Last Train (Live At The Royal Concert Hall / 2022)
10. Travis - Afterglow (Live At The Royal Concert Hall / 2022)
11. Travis - Indefinitely (Live At The Royal Concert Hall / 2022)
12. Travis - The Humpty Dumpty Love Song (Live At The Royal Concert Hall / 2022)

foobar2000 1.6.2 / Dynamic Range Meter 1.1.1
log date: 2023-04-20 13:31:43

––––––––––––––––––––––––––––––––––––––––
Analyzed: Travis / The Invisible Band
––––––––––––––––––––––––––––––––––––––––

DR Peak RMS Duration Track
––––––––––––––––––––––––––––––––––––––––
DR10 -0.42 dB -12.71 dB 5:59 01-Sing (Live At The Royal Concert Hall / 2022)
DR11 -2.42 dB -17.69 dB 3:14 02-Dear Diary (Live At The Royal Concert Hall / 2022)
DR9 -0.20 dB -10.71 dB 4:07 03-Side (Live At The Royal Concert Hall / 2022)
DR10 -0.28 dB -13.38 dB 7:20 04-Pipe Dreams (Live At The Royal Concert Hall / 2022)
DR10 -0.36 dB -11.54 dB 3:21 05-Flowers In The Window (Live At The Royal Concert Hall / 2022)
DR10 -0.86 dB -14.45 dB 4:10 06-The Cage (Live At The Royal Concert Hall / 2022)
DR10 -0.30 dB -13.88 dB 5:09 07-Safe (Live At The Royal Concert Hall / 2022)
DR9 -0.68 dB -11.61 dB 3:10 08-Follow The Light (Live At The Royal Concert Hall / 2022)
DR10 -1.16 dB -14.45 dB 3:59 09-Last Train (Live At The Royal Concert Hall / 2022)
DR10 -0.35 dB -13.08 dB 4:41 10-Afterglow (Live At The Royal Concert Hall / 2022)
DR11 -1.21 dB -16.70 dB 6:11 11-Indefinitely (Live At The Royal Concert Hall / 2022)
DR10 -0.22 dB -13.59 dB 5:35 12-The Humpty Dumpty Love Song (Live At The Royal Concert Hall / 2022)
––––––––––––––––––––––––––––––––––––––––

Number of tracks: 12
Official DR value: DR10

Samplerate: 48000 Hz
Channels: 2
Bits per sample: 24
Bitrate: 1648 kbps
Codec: FLAC
================================================================================



Thanks to the Original customer.