Tags
Language
Tags

Treetop Flyers - Treetop Flyers (2018) [Official Digital Download]

Posted By: SERTiL
Treetop Flyers - Treetop Flyers (2018) [Official Digital Download]

Treetop Flyers - Treetop Flyers (2018)
FLAC (tracks) 24-bit/44.1 kHz | Time - 41:05 minutes | 441 MB
Studio Master, Official Digital Download | Artwork: Front Cover

Londoners, Treetop Flyers, return with their eponymous third album, continuing where they left off with their excellent 2016 release ‘Palamino’. The decision to make this record self-titled is more than apt, as it is the most confident that Treetop Flyers have sounded in themselves yet, largely following a formula of dreamy, mellow 60s-style melodies interspersed with dashings of psychedelia.

The soulful ‘Warning Bell’ kicks things off, followed by the tender folky ballad of ‘Astral Plane’ as the Flyers gently ease the listener in. The subtle underlying groove to ‘Fleadrops’ could well be an ‘Abbey Road’ outtake before the band properly let loose with the catchy, old-school chorus on ‘It’s Hard To Understand’, sprinkled with hints of mellotron for good measure.

It is on the second half of the record, however, that ‘Treetop Flyers’ as a piece of work really shines. The band experiment sonically more than they ever have before, and they sound entirely comfortable in doing so. ‘Needle’ centres around the looped section at the end of a vinyl record beneath frontman Reid Morrison’s gorgeous falsetto coupled with soaring saxophone. After the eight-minute, psych-fuelled jam of ‘Art Of Deception’, which wouldn’t sound out of place on any Grateful Dead record, guitarist Sam Beer takes over lead vocal duties on the fantastic ‘Kooky Clothes’. Boasting another hook-laden chorus, the guitarist sings “you don’t owe me anymore, leave me alone”, eventually giving way to another virtuosic jam as Beer and frontman Morrison trade riffs to play us out.

What with there currently being a country-tinged soul revival of sorts happening, with the likes of Nathaniel Rateliff & The Night Sweats and The Lone Bellow enjoying immense levels success in recent times, it isn’t inconceivable that this latest offering from Treetop Flyers could see them finally gain some proper mainstream recognition. ~ Graham McCusker



Tracklist:
1. Fleadrops (03:22)
2. Sweet Greens & Blues (03:52)
3. It's Hard to Understand (04:11)
4. Kooky Clothes (04:41)
5. Needle (05:01)
6. Astral Plane (02:34)
7. Warning Bell (03:30)
8. Art of Deception (08:22)
9. I Knew I'd Find You (04:12)
10. Door 14 (01:20)

foobar2000 1.3.7 / Dynamic Range Meter 1.1.1
log date: 2018-08-24 15:02:24

––––––––––––––––––––––––––––––––––––––––
Analyzed: Treetop Flyers / Treetop Flyers
––––––––––––––––––––––––––––––––––––––––

DR Peak RMS Duration Track
––––––––––––––––––––––––––––––––––––––––
DR9 -0.20 dB -12.69 dB 3:22 01-Fleadrops
DR8 -0.20 dB -10.79 dB 3:52 02-Sweet Greens & Blues
DR8 -0.20 dB -9.99 dB 4:11 03-It's Hard to Understand
DR8 -0.20 dB -11.24 dB 4:42 04-Kooky Clothes
DR8 -0.20 dB -11.30 dB 5:01 05-Needle
DR12 -0.20 dB -14.27 dB 2:35 06-Astral Plane
DR8 -0.20 dB -9.95 dB 3:31 07-Warning Bell
DR6 -0.20 dB -8.41 dB 8:23 08-Art of Deception
DR10 -0.20 dB -12.74 dB 4:13 09-I Knew I'd Find You
DR10 -0.20 dB -13.27 dB 1:21 10-Door 14
––––––––––––––––––––––––––––––––––––––––

Number of tracks: 10
Official DR value: DR9

Samplerate: 44100 Hz
Channels: 2
Bits per sample: 24
Bitrate: 1213 kbps
Codec: FLAC
================================================================================


Thanks to the Original customer.