Tags
Language
Tags

Roby Lakatos & Bireli Lagrene - Tribute To Stephane & Django (2017) [Official Digital Download 24/96]

Posted By: SERTiL
Roby Lakatos & Bireli Lagrene - Tribute To Stephane & Django (2017) [Official Digital Download 24/96]

Roby Lakatos & Bireli Lagrene - Tribute To Stephane & Django (2017)
FLAC (tracks) 24-bit/96 kHz | Time - 72:09 minutes | 1.38 GB
Studio Master, Official Digital Download | Artwork: Front Cover

The exciting meeting of two living legends of Jazz! For the first time on SACD/DVD "The fastest-fingered fiddler in the world" Roby Lakatos is joined by "speed demon" guitar hero Biréli Lagrène for a unique tribute to Stéphane Grappelli and Django Reinhardt. Both musicians performed in their youth with Stephane Grappelli. For this album they surrounded themselves with the superlative big band of the Modern Art Orchestra and by two first rate Jazzmen of the younger generation: thrilling drummer Niek de Bruijn and guitar sensation Andreas Varady. This is an explosive tribute to Manouche Jazz with standards such as "Djangology", "Nuages", "Stella by Starlight" and "Nuits de Saint-Germain-Des-Près".

Tracklist:
01. Djangology
02. Tears
03. Nuages
04. Troublant Bolero
05. Mr Grappelli
06. Minor Swing
07. Mimosa
08. Nuits de Saint Germain-des-Pres
09. Stella by Starlight
10. Cherokee

foobar2000 1.3.7 / Dynamic Range Meter 1.1.1
log date: 2018-02-11 22:44:53

––––––––––––––––––––––––––––––––––––––––
Analyzed: Roby Lakatos, Modern Art Orchestra, Niek De Bruijn / Tribute to Stephane and Django
––––––––––––––––––––––––––––––––––––––––

DR Peak RMS Duration Track
––––––––––––––––––––––––––––––––––––––––
DR11 -0.38 dB -14.25 dB 5:33 01-Djangology
DR12 -0.38 dB -15.42 dB 6:15 02-Tears
DR14 -0.38 dB -19.10 dB 8:12 03-Nuages
DR14 -6.20 dB -24.26 dB 6:13 04-Troublant Bolero
DR13 -0.38 dB -17.35 dB 6:22 05-Mr Grappelli
DR12 -0.38 dB -14.94 dB 5:34 06-Minor Swing
DR13 -0.59 dB -17.50 dB 6:30 07-Mimosa
DR13 -0.38 dB -16.32 dB 8:17 08-Nuits de Saint Germain-des-Pres
DR13 -1.86 dB -18.94 dB 10:08 09-Stella by Starlight
DR11 -0.38 dB -14.63 dB 9:10 10-Cherokee
––––––––––––––––––––––––––––––––––––––––

Number of tracks: 10
Official DR value: DR13

Samplerate: 96000 Hz
Channels: 2
Bits per sample: 24
Bitrate: 3056 kbps
Codec: FLAC
================================================================================


Thanks to the Original customer.