Tags
Language
Tags

Valerie June - The Moon And Stars- Prescriptions For Dreamers (2021) [Official Digital Download]

Posted By:
Valerie June - The Moon And Stars- Prescriptions For Dreamers (2021) [Official Digital Download]

Valerie June - The Moon And Stars- Prescriptions For Dreamers (2021) [Official Digital Download]
FLAC (tracks) 24-bit/44.1 kHz | Front Cover | Time - 44:30 minutes | 479 MB
Soul | Label: Fantasy, Official Digital Download

The follow-up to Valerie June's widely adored The Order of Time-a 2017 effort that earned the admiration of Bob Dylan and landed on best-of-the-year lists from the likes of Rolling Stone and the New York Times- The Moon and Stars: Prescriptions for Dreamers is a potent catalyst for that kind of magic. With her spellbinding vocals & infectious sense of wonder, June gently eases the listener into a far more charmed state of mind, one that quickly restores a powerful feeling of joyful possibility.

TRACKLIST

1. Valerie June - Stay
2. Valerie June - Stay Meditation
3. Valerie June - You And I
4. Valerie June - Colors
5. Valerie June - Stardust Scattering
6. Valerie June - African Proverb
7. Valerie June - Call Me A Fool
8. Valerie June - Fallin'
9. Valerie June - Smile
10. Valerie June - Within You
11. Valerie June - Two Roads
12. Valerie June - Why The Bright Stars Glow
13. Valerie June - Home Inside
14. Valerie June - Starlight Ethereal Silence

foobar2000 1.6.1 / Dynamic Range Meter 1.1.1
log date: 2021-03-11 15:15:44

––––––––––––––––––––––––––––––––––––––––
Analyzed: Valerie June / The Moon And Stars: Prescriptions For Dreamers
––––––––––––––––––––––––––––––––––––––––

DR Peak RMS Duration Track
––––––––––––––––––––––––––––––––––––––––
DR6 0.00 dB -8.24 dB 3:02 01-Stay
DR8 -10.29 dB -22.19 dB 0:55 02-Stay Meditation
DR6 0.00 dB -8.13 dB 3:39 03-You And I
DR7 0.00 dB -9.69 dB 4:20 04-Colors
DR7 0.00 dB -10.26 dB 4:30 05-Stardust Scattering
DR12 -1.15 dB -17.10 dB 0:28 06-African Proverb
DR6 0.00 dB -8.04 dB 3:44 07-Call Me A Fool
DR9 0.00 dB -10.55 dB 3:19 08-Fallin'
DR6 0.00 dB -7.66 dB 3:30 09-Smile
DR6 0.00 dB -8.13 dB 4:59 10-Within You
DR8 0.00 dB -11.07 dB 4:11 11-Two Roads
DR7 0.00 dB -9.40 dB 3:25 12-Why The Bright Stars Glow
DR7 0.00 dB -11.20 dB 2:59 13-Home Inside
DR13 -5.99 dB -24.70 dB 1:29 14-Starlight Ethereal Silence
––––––––––––––––––––––––––––––––––––––––

Number of tracks: 14
Official DR value: DR8

Samplerate: 44100 Hz
Channels: 2
Bits per sample: 24
Bitrate: 1305 kbps
Codec: FLAC
================================================================================



Thanks to the Original customer.