Van Morrison - Avalon Sunset (Remastered) (1989/2020) [Official Digital Download 24/96]

Posted By: SERTiL
Van Morrison - Avalon Sunset (Remastered) (1989/2020) [Official Digital Download 24/96]

Van Morrison - Avalon Sunset (Remastered) (1989/2020)
FLAC (tracks) 24-bit/96 kHz | Time - 52:26 minutes | 1.08 GB
Studio Master, Official Digital Download | Artwork: Front Cover

Avalon Sunset is the nineteenth studio album by Northern Irish singer-songwriter Van Morrison.

The album opens with "Whenever God Shines His Light", issued as a successful single that charted at No. 20 in the UK and was a duet with Cliff Richard. The album contains the religious ballad "Have I Told You Lately", which became a hit single for Morrison, reaching #12 on the Adult Contemporary Charts and was a bigger hit for Rod Stewart in 1993. This song was included on Morrison's 2007 album, Van Morrison at the Movies – Soundtrack Hits.[citation needed] Brian Hinton compares the idyllic female in "Orangefield" to Beatrice in the Divine Comedy.

Phil Keaggy covered "When Will I Ever Learn to Live in God" on his 1993 album Crimson and Blue.

On Avalon Sunset, Rob Sheffield wrote, Morrison sang about God and love in a scat-influenced style, set against a musical backdrop of mellow folk rock. According to Donald Clarke, the album combined "religiosity and Celtic feeling, a sort of superior New Age music".

Tracklist:
1. Whenever God Shines His Light (4:55)
2. Contacting My Angel (4:59)
3. I'd Love to Write Another Song (2:55)
4. Have I Told You Lately (4:20)
5. Coney Island (2:03)
6. I'm Tired Joey Boy (2:33)
7. When Will I Ever Learn to Live In God (5:39)
8. Orangefield (3:52)
9. Daring Night (6:14)
10. These Are the Days (5:19)
11. Whenever God Shines His Light (alternative take) (3:52)
12. When the Saints Go Marching In (6:02)

Personnel:
Van Morrison, vocal, guitar, producer
Alan Barnes, baritone saxophone
Neil Drinkwater, accordion, piano, synthesizer
Dave Early, drums, percussion
Georgie Fame, Hammond organ
Cliff Hardie, trombone
Carol Kenyon, backing vocals
Katie Kissoon, backing vocals
Henry Lowther, trumpet
Arty McGlynn, guitar
Steve Pearce, bass
Clive Culbertson, bass
Roy Jones, drums, percussion
Cliff Richard, vocal on "Whenever God Shines His Light"
Stan Sulzmann, alto saxophone
Gavyn Wright, string section leader

Digitally remastered

foobar2000 1.3.7 / Dynamic Range Meter 1.1.1
log date: 2020-02-27 23:59:34

––––––––––––––––––––––––––––––––––––––––
Analyzed: Van Morrison / Avalon Sunset
––––––––––––––––––––––––––––––––––––––––

DR Peak RMS Duration Track
––––––––––––––––––––––––––––––––––––––––
DR9 -1.01 dB -12.86 dB 4:55 01-Whenever God Shines His Light
DR11 -1.01 dB -14.46 dB 4:59 02-Contacting My Angel
DR9 -1.01 dB -12.11 dB 2:55 03-I'd Love to Write Another Song
DR10 -1.01 dB -13.47 dB 4:20 04-Have I Told You Lately
DR11 -1.00 dB -13.66 dB 2:03 05-Coney Island
DR11 -1.01 dB -14.22 dB 2:33 06-I'm Tired Joey Boy
DR10 -1.00 dB -12.91 dB 5:39 07-When Will I Ever Learn to Live In God
DR9 -1.01 dB -11.94 dB 3:52 08-Orangefield
DR10 -1.01 dB -13.15 dB 6:14 09-Daring Night
DR10 -1.01 dB -13.54 dB 5:19 10-These Are the Days
DR15 -1.00 dB -17.86 dB 3:52 11-Whenever God Shines His Light (alternative take)
DR16 -1.08 dB -19.12 dB 6:02 12-When the Saints Go Marching In
––––––––––––––––––––––––––––––––––––––––

Number of tracks: 12
Official DR value: DR11

Samplerate: 96000 Hz
Channels: 2
Bits per sample: 24
Bitrate: 2818 kbps
Codec: FLAC
================================================================================


Thanks to the Original customer.