Van Morrison - Back on Top (Remastered) (1999/2020) [Official Digital Download 24/96]

Posted By: SERTiL
Van Morrison - Back on Top (Remastered) (1999/2020) [Official Digital Download 24/96]

Van Morrison - Back on Top (Remastered) (1999/2020)
FLAC (tracks) 24-bit/96 kHz | Time - 62:21 minutes | 1.34 GB
Studio Master, Official Digital Download | Artwork: Front Cover

"Back on Top" is the twenty-seventh studio album by Northern Irish singer/songwriter Van Morrison. It was released in 1999. This album marks a slight return to the forms of music he is most known for: blues and R&B. Upon the album's release, Rolling Stone reviewed it as "one Monet and nine Norman Rockwells", the "Monet" being "When the Leaves Come Falling Down" which it called a masterpiece.

"After so many songs ranging through so many styles, it is a pleasure to have Van Morrison return to the music that suits him so well. Steeped in blues and R&B, Back on Top finds Morrison celebrating life and its pleasures to the limit. The up-tempo "New Biography" takes a sharp stab at those who say they know him just so they can see their names in print. "Golden Autumn Day" is a near perfect summation of his music up to today and provides a rare glimpse into his personal life as well. On this and other cuts, Morrison sounds like he's taken a lesson or two from tourmate Bob Dylan, and there's a thread that runs from Dylan's recent work right on through to this one. "Goin' Down Geneva" is a great blues cut, while "In the Midnight" is bedroom music, pure and simple. "Back on Top," the title track, swings along with such ease that you're tempted to check and make sure you didn't put in Moondance by mistake. The meditative "When the Leaves Come Falling Down" even will remind one of Morrison's meditations on Astral Weeks. No matter which track you pick, there's not a weak cut here." (James Chrispell, AMG)

Tracklist:
1. Goin' Down Geneva (4:27)
2. Philosopher's Stone (Remastered) (6:07)
3. In the Midnight (Live) (5:08)
4. Back On Top (4:22)
5. When the Leaves Come Falling Down (5:41)
6. High Summer (Remastered) (5:14)
7. Reminds Me of You (Remastered) (5:42)
8. New Biography (Remastered) (5:25)
9. Precious Time (Remastered) (3:49)
10. Golden Autumn Day (6:41)
11. Philosopher's Stone (4:52)
12. Valley of Tears (5:03)

Personnel:
Van Morrison, vocals, acoustic guitar, harmonica, producer
Mick Green, acoustic and electric guitars
Pee Wee Ellis, soprano, tenor and baritone saxophones, background vocals
Matt Holland, trumpet
Geraint Watkins, piano, Hammond organ
Fiachra Trench, piano
Ian Jennings, double bass
Liam Bradley, drums, percussion, background vocals
Bobby Irwin, drums
Brian Kennedy, background vocals
Irish Film Orchestra

Digitally remastered

foobar2000 1.3.7 / Dynamic Range Meter 1.1.1
log date: 2020-02-28 00:00:06

––––––––––––––––––––––––––––––––––––––––
Analyzed: Van Morrison / Back on Top (Remastered)
––––––––––––––––––––––––––––––––––––––––

DR Peak RMS Duration Track
––––––––––––––––––––––––––––––––––––––––
DR9 -1.10 dB -11.37 dB 4:27 01-Goin' Down Geneva
DR7 -1.10 dB -10.96 dB 6:07 02-Philosopher's Stone (Remastered)
DR10 -1.10 dB -12.97 dB 5:08 03-In the Midnight (Live)
DR8 -1.10 dB -10.09 dB 4:22 04-Back On Top
DR9 -1.10 dB -12.99 dB 5:41 05-When the Leaves Come Falling Down
DR8 -1.70 dB -11.28 dB 5:14 06-High Summer (Remastered)
DR8 -1.10 dB -11.49 dB 5:42 07-Reminds Me of You (Remastered)
DR7 -1.10 dB -10.67 dB 5:25 08-New Biography (Remastered)
DR8 -1.10 dB -10.00 dB 3:49 09-Precious Time (Remastered)
DR8 -1.10 dB -11.38 dB 6:41 10-Golden Autumn Day
DR9 -1.01 dB -12.55 dB 4:52 11-Philosopher's Stone
DR11 -1.00 dB -14.43 dB 5:03 12-Valley of Tears
––––––––––––––––––––––––––––––––––––––––

Number of tracks: 12
Official DR value: DR8

Samplerate: 96000 Hz
Channels: 2
Bits per sample: 24
Bitrate: 2995 kbps
Codec: FLAC
================================================================================


Thanks to the Original customer.