Van Morrison & The Chieftains - Irish Heartbeat (Remastered) (1988/2020) [Official Digital Download 24/96]

Posted By: SERTiL
Van Morrison & The Chieftains - Irish Heartbeat (Remastered) (1988/2020) [Official Digital Download 24/96]

Van Morrison & The Chieftains - Irish Heartbeat (Remastered) (1988/2020)
FLAC (tracks) 24-bit/96 kHz | Time - 38:56 minutes | 815 MB
Studio Master, Official Digital Download | Artwork: Front Cover

"Irish Heartbeat", a collaboration album with Van Morrison, was Van’s first attempt to reconcile his Celtic roots with his blues and soul music. It was also The Chieftains’ first full blown collaboration album. Although there were worries about working with a major rock star, the recording was a success, introducing elements of Van’s unique soul and jazz style singing to traditional songs and music. This was the beginning of an ongoing successful musical relationship between Van and The Chieftains.

"Irish Heartbeat" was nominated for a Grammy Award in 1989, and there followed a tour of Europe and the UK

"On their wide musical journeys in the '80s, the Chieftains decided to collaborate with Van Morrison, who had an artistic peak at the end of the decade. The result was a highlight in both of their '80s productions: the traditional Irish Heartbeat, with Morrison on lead vocals and a guest appearance from the Mary Black. Morrisonand Moloney's production puts the vocals up front with a sparse background, sometimes with a backdrop of intertwining strings and flutes, the same way Morrison would later use the Chieftains on his Hymns to the Silence. The arrangement and the artist's engaged singing leads to a brilliant result, and these Irish classics are made very accessible without being transformed into pop songs. Of the ten tracks included, eight are Irish trads. The title track and "Celtic Ray" are written by Morrison, and also appear on Beautiful Vision and Inarticulate Speech of the Heart, but since they are written in a pseudo traditional style, the folksy treatment given them by the Chieftains makes these versions sound as if they were the originals."

Tracklist:
1. Star of the County Down (2:42)
2. Irish Heartbeat (3:52)
3. Ta Mo Chleamhnas Deanta (3:32)
4. Raglan Road (4:56)
5. She Moved Through the Fair (4:45)
6. I'll Tell Me Ma (2:31)
7. Carrickfergus (4:25)
8. Celtic Ray (3:42)
9. My Lagan Love (5:21)
10. Marie's Wedding (3:15)

Personnel:
Van Morrison, lead vocals, guitar, drums
Paddy Moloney, uilleann pipes, tin whistle
Martin Fay, fiddle, bones
Derek Bell, harp, keyboards, tiompán
Kevin Conneff, bodhran, co-lead vocals on "Star of the County Down", "Tá Mo Chleamhnas Déanta" and "I'll Tell Me Ma"
Matt Molloy, flute
Seán Keane, fiddle
Ciarán O'Braonáin, bass
Mary Black, backing vocals on "Marie's Wedding" and "Tá Mo Chleamhnas Déanta"
Maura O'Connell, backing vocals on "Marie's Wedding"
June Boyce, backing vocals on "Celtic Ray", "Irish Heartbeat" and "Marie's Wedding"

Digitally remastered

foobar2000 1.3.7 / Dynamic Range Meter 1.1.1
log date: 2020-02-19 22:18:50

––––––––––––––––––––––––––––––––––––––––
Analyzed: Van Morrison & The Chieftains / Irish Heartbeat (Remastered)
––––––––––––––––––––––––––––––––––––––––

DR Peak RMS Duration Track
––––––––––––––––––––––––––––––––––––––––
DR11 -1.00 dB -14.12 dB 2:42 01-Star of the County Down
DR11 -1.01 dB -13.64 dB 3:52 02-Irish Heartbeat
DR12 -1.00 dB -14.96 dB 3:32 03-Ta Mo Chleamhnas Deanta
DR11 -1.00 dB -15.29 dB 4:56 04-Raglan Road
DR12 -1.00 dB -16.49 dB 4:45 05-She Moved Through the Fair
DR10 -1.00 dB -12.54 dB 2:31 06-I'll Tell Me Ma
DR12 -1.00 dB -15.66 dB 4:25 07-Carrickfergus
DR12 -1.00 dB -15.16 dB 3:42 08-Celtic Ray
DR12 -1.00 dB -16.75 dB 5:21 09-My Lagan Love
DR10 -1.01 dB -12.41 dB 3:15 10-Marie's Wedding
––––––––––––––––––––––––––––––––––––––––

Number of tracks: 10
Official DR value: DR11

Samplerate: 96000 Hz
Channels: 2
Bits per sample: 24
Bitrate: 3029 kbps
Codec: FLAC
================================================================================


Thanks to the Original customer.