Van Morrison - Live at the Grand Opera House Belfast (Remastered) (1984/2020) [Official Digital Download 24/96]

Posted By: SERTiL
Van Morrison - Live at the Grand Opera House Belfast (Remastered) (1984/2020) [Official Digital Download 24/96]

Van Morrison - Live at the Grand Opera House Belfast (Remastered) (1984/2020)
FLAC (tracks) 24-bit/96 kHz | Time - 52:06 minutes | 1.14 GB
Studio Master, Official Digital Download | Artwork: Front Cover

"Live at the Grand Opera House Belfast" is a live album by Northern Irish singer-songwriter Van Morrison, released in 1984. It was recorded from four live shows in March 1983 at the Grand Opera House, Belfast, Northern Ireland (Morrison's birthplace). The album was composed of songs from Morrison's last four recordings. It is the second live album Morrison released, following 10 years after It's Too Late to Stop Now.

"This is as curious a live album as exists in Van Morrison's voluminous catalog. It's a homecoming record in many ways, since Morrison went back home to live in Ireland shortly after this was released, after many years in the United States. Recorded in 1983 and released on Mercury in 1984, this is, in reality, a solid presentation of his "spiritual Celtic soul" period that began with 1979's Into the Music and would continue into the early '90s. Only the very beginning of the introduction contains anything from his much-celebrated early-'70s period. "Into the Mystic" is used as a calling card for what is to come in this recording, because it lasts just over 45 seconds – the rest of that intro is the title track of 1983's Inarticulate Speech of the Heart, an album he was touring to support (it was his final offering for Warner Bros.). The Grand Opera House set is compiled form two nights of performances. The band here is stellar and includes Pee Wee Ellis on saxophones, Mark Isham on trumpet and synthesizers, and drummers Peter Van Hooke and Tom Donlinger, just to mention a few. Five of these cuts – "She Gives Me Religion," "Beautiful Vision," "Vanlose Stairway," "Northern Muse," and set closer "Cleaning Windows" – come from the vastly underrated Beautiful Vision album, and the rest from Common One, Into the Music, and Inarticulate Speech of the Heart. The performance is perfect. And if there's a problem with this set, that's it. Many bootlegs from the period exist, and there is a certain nearly off-the-rails feeling in them that Morrison – as the perfectionist producer he is – couldn't resist getting rid of here. It's a bit maddening, really, simply because while this flows seamlessly from top to bottom just as Morrison's studio albums do, there is none of the spontaneity of his earlier gigs or even his later recordings with Georgie Fame, Lonnie Donegan, the Chieftains, or Linda Lewis. The only places one hears Morrison as a soul shouter here is on "Vanlose Stairway," where he lets out a scream and plays off the trio of female backing vocalists, and on the final tracks where the bandmembers loosen up and allow the dirt to get under their fingernails a bit – especially on "Vanlose Stairway" and "Cleaning Windows." Would that there were more. Still, for those who can't get enough of Morrison from the period, this will be a welcome addition to the shelf." (Thom Jurek, AMG)

Tracklist:
1. Introduction: Into the Mystic (Instrumental) / Inarticulate Speech of the Heart (Live) (1:06)
2. Dweller on the Threshold (Live) (3:39)
3. It's All in the Game / You Know What They're Writing About (Live) (7:10)
4. She Gives Me Religion (Live) (4:36)
5. Haunts of Ancient Peace (Live) (6:25)
6. Full Force Gale (Live) (2:24)
7. Beautiful Vision (Live) (3:34)
8. Vanlose Stairway (Live) (5:30)
9. Rave on, John Donne / Rave on, Pt. 2 (Live) (9:10)
10. Northern Musie (Solid Ground) (Live) (3:46)
11. Cleaning Windows (Live) (4:52)

Personnel:
Van Morrison, vocals, guitar, electric piano, alto saxophone
Pee Wee Ellis, tenor saxophone, flute, backing vocals
Mark Isham, synthesizer, trumpet
John Allair, organ
David Hayes, bass
Peter Van Hooke, drums
Tom Donlinger, drums
Chris Michie, guitar
Katie Kissoon, backing vocals
Bianca Thornton, backing vocals
Carol Kenyon, backing vocals

Digitally remastered

foobar2000 1.3.7 / Dynamic Range Meter 1.1.1
log date: 2020-02-28 00:00:33

––––––––––––––––––––––––––––––––––––––––
Analyzed: Van Morrison / Live at the Grand Opera House Belfast
––––––––––––––––––––––––––––––––––––––––

DR Peak RMS Duration Track
––––––––––––––––––––––––––––––––––––––––
DR14 -2.90 dB -18.66 dB 1:06 01-Introduction: Into the Mystic (Instrumental) / Inarticulate Speech of the Heart (Live)
DR10 -1.04 dB -12.59 dB 3:39 02-Dweller on the Threshold (Live)
DR9 -1.08 dB -14.88 dB 7:10 03-It's All in the Game / You Know What They're Writing About (Live)
DR8 -1.03 dB -11.07 dB 4:36 04-She Gives Me Religion (Live)
DR10 -1.06 dB -14.31 dB 6:25 05-Haunts of Ancient Peace (Live)
DR8 -1.08 dB -10.51 dB 2:24 06-Full Force Gale (Live)
DR9 -1.04 dB -12.71 dB 3:34 07-Beautiful Vision (Live)
DR8 -1.07 dB -12.04 dB 5:30 08-Vanlose Stairway (Live)
DR9 -1.01 dB -13.50 dB 9:10 09-Rave on, John Donne / Rave on, Pt. 2 (Live)
DR9 -1.04 dB -12.31 dB 3:46 10-Northern Musie (Solid Ground) (Live)
DR9 -1.05 dB -12.59 dB 4:52 11-Cleaning Windows (Live)
––––––––––––––––––––––––––––––––––––––––

Number of tracks: 11
Official DR value: DR9

Samplerate: 96000 Hz
Channels: 2
Bits per sample: 24
Bitrate: 3151 kbps
Codec: FLAC
================================================================================


Thanks to the Original customer.