Van Morrison - The Prophet Speaks (2018) [Official Digital Download 24/96]

Posted By: SERTiL
Van Morrison - The Prophet Speaks (2018) [Official Digital Download 24/96]

Van Morrison - The Prophet Speaks (2018)
FLAC (tracks) 24-bit/96 kHz | Time - 68:49 minutes | 1.46 GB
Studio Master, Official Digital Download | Artwork: Front Cover

The Prophet Speaks is Van Morrison's 40th studio album released via Caroline International. Van takes on a series of unarguable classics by the likes of John Lee Hooker, Sam Cooke and Solomon Burke (among others) and makes them unmistakably his own. Alongside these reinterpretations, The Prophet Speaks features six phenomenal new Van Morrison compositions.

This fourteen track album follows a recent run of hugely acclaimed albums (Roll With The Punches, Versatile and You’re Driving Me Crazy), each of which has delved deep into the musical styles that have continued to inspire Van throughout his life – vocal jazz and R&B. Here, Van takes on a series of unarguable classics by the likes of John Lee Hooker, Sam Cooke and Solomon Burke (among others) and makes them unmistakably his own. Alongside these reinterpretations, The Prophet Speaks features six phenomenal new Van Morrison compositions.

The Prophet Speaks again finds Van working with the incredible multi-instrumentalist Joey DeFrancesco (the artist co-credited on You’re Driving Me Crazy) and his band (including Dan Wilson on guitar, Michael Ode on drums and Troy Roberts on tenor saxophone).

Tracklist:
1. Gonna Send You Back To Where I Got You From
2. Dimples
3. Got To Go Where The Love Is
4. Laughin And Clownin
5. 5 Am Greenwich Mean Time
6. Gotta Get You Off My Mind
7. Teardrops
8. I Love The Life I Live
9. Worried Blues/Rollin And Tumblin
10. Ain't Gonna Moan No More
11. Love Is A Five Letter Word
12. Love Is Hard Work
13. Spirit Will Provide
14. The Prophet Speaks

foobar2000 1.3.7 / Dynamic Range Meter 1.1.1
log date: 2018-12-07 03:20:48

––––––––––––––––––––––––––––––––––––––––
Analyzed: Van Morrison / The Prophet Speaks
––––––––––––––––––––––––––––––––––––––––

DR Peak RMS Duration Track
––––––––––––––––––––––––––––––––––––––––
DR10 -0.68 dB -13.04 dB 4:40 01-Gonna Send You Back To Where I Got You From
DR11 -0.68 dB -12.75 dB 5:34 02-Dimples
DR9 -0.68 dB -11.10 dB 4:23 03-Got To Go Where The Love Is
DR11 -0.68 dB -13.37 dB 5:32 04-Laughin And Clownin
DR11 -0.68 dB -13.36 dB 5:37 05-5 Am Greenwich Mean Time
DR11 -0.68 dB -12.89 dB 3:45 06-Gotta Get You Off My Mind
DR11 -0.68 dB -14.41 dB 6:00 07-Teardrops
DR10 -0.68 dB -13.89 dB 3:35 08-I Love The Life I Live
DR10 -0.68 dB -11.70 dB 6:22 09-Worried Blues/Rollin And Tumblin
DR11 -0.68 dB -14.03 dB 6:16 10-Ain't Gonna Moan No More
DR10 -0.68 dB -12.45 dB 3:45 11-Love Is A Five Letter Word
DR12 -0.68 dB -14.93 dB 4:29 12-Love Is Hard Work
DR12 -0.68 dB -14.19 dB 4:03 13-Spirit Will Provide
DR11 -0.68 dB -13.75 dB 4:55 14-The Prophet Speaks
––––––––––––––––––––––––––––––––––––––––

Number of tracks: 14
Official DR value: DR11

Samplerate: 96000 Hz
Channels: 2
Bits per sample: 24
Bitrate: 3009 kbps
Codec: FLAC
================================================================================


Thanks to the Original customer.