Van Morrison - Too Long in Exile (Remastered) (1993/2020) [Official Digital Download 24/96]

Posted By: SERTiL
Van Morrison - Too Long in Exile (Remastered) (1993/2020) [Official Digital Download 24/96]

Van Morrison - Too Long in Exile (Remastered) (1993/2020)
FLAC (tracks) 24-bit/96 kHz | Time - 64:01 minutes | 1.34 GB
Studio Master, Official Digital Download | Artwork: Front Cover

Too Long in Exile is the twenty-second studio album by Northern Irish singer-songwriter Van Morrison. The album was produced by Morrison and draws on urban blues and soul jazz sounds, including collaborations with John Lee Hooker and Georgie Fame. Released in 1993 by Polydor Records, Too Long in Exile received positive reviews from most critics and reached number four on the UK Albums Chart.

"The title track is a mundane cross between contemporary blues and soft rock with a chorus repeated ad nauseam. Next up is the gently rocking blues of "Big Time Operator" featuring Georgie Fame on organ. Morrison bites into a delicious cover of Ray Charles' "Lonely Avenue." John Lee Hooker appears on two striking duets, "Gloria" and "Wasted Years." Sonny Boy Williamson's "Good Morning Little School Girl" is revisited and sped up a bit with nice harmonica solo by Morrison. Throughout, Morrison's raw vocal cords are sufficiently dramatic to bring these rhythmic stories to life. This is an earthy departure from his two previous pop efforts." (Bil Carpenter, AMG)

Tracklist:
01. Harpsichord Concerto No. 1 in D Minor, BWV 1052: I. Allegro (7:12)
02. Harpsichord Concerto No. 1 in D Minor, BWV 1052: II. Adagio (6:38)
03. Harpsichord Concerto No. 1 in D Minor, BWV 1052: III. Allegro (7:23)
04. Harpsichord Concerto No. 2 in E Major, BWV 1053: I. Allegro (7:55)
05. Harpsichord Concerto No. 2 in E Major, BWV 1053: II. Siciliano (3:53)
06. Harpsichord Concerto No. 2 in E Major, BWV 1053: III. Allegro (6:11)
07. Harpsichord Concerto No. 7 in G Minor, BWV 1058: I. Allegro (3:24)
08. Harpsichord Concerto No. 7 in G Minor, BWV 1058: II. Andante (4:50)
09. Harpsichord Concerto No. 7 in G Minor, BWV 1058: III. Allegro assai (3:49)
10. Harpsichord Concerto No. 4 in A Major, BWV 1055: I. Allegro (4:04)
11. Harpsichord Concerto No. 4 in A Major, BWV 1055: II. Larghetto (4:42)
12. Harpsichord Concerto No. 4 in A Major, BWV 1055: III. Allegro ma non tanto (4:05)

Personnel:
Van Morrison, vocals, electric guitar, acoustic guitar, alto saxophone, harmonica
John Lee Hooker, vocals, electric guitar on "Gloria" and "Wasted Years"
Ronnie Johnson, electric guitar
Candy Dulfer, alto saxophone
Kate St John, tenor saxophone, cor anglais
Teena Lyle, backing vocals, Hammond organ, percussion, vibraphone
Jonn Savannah, backing vocals, Hammond organ
Georgie Fame, Hammond organ, backing vocals
Howard Francis, Hammond organ, piano
John Allair, Hammond organ
Nicky Scott, bass
Richard Cousins, bass
Geoff Dunn, drums
Paul Robinson, drums
Kevin Hayes, drums

Digitally remastered

foobar2000 1.3.7 / Dynamic Range Meter 1.1.1
log date: 2020-03-08 14:59:05

––––––––––––––––––––––––––––––––––––––––
Analyzed: Van Morrison / Too Long in Exile
––––––––––––––––––––––––––––––––––––––––

DR Peak RMS Duration Track
––––––––––––––––––––––––––––––––––––––––
DR9 -1.02 dB -12.70 dB 6:19 01-Too Long in Exile
DR9 -1.01 dB -11.47 dB 6:04 02-Big Time Operators
DR9 -1.01 dB -11.77 dB 6:26 03-Lonely Avenue
DR9 -1.01 dB -11.25 dB 5:36 04-Ball & Chain
DR9 -1.01 dB -12.26 dB 4:38 05-In the Forest
DR9 -1.01 dB -12.20 dB 8:31 06-Till We Get the Healing Done
DR9 -1.01 dB -11.59 dB 5:20 07-Gloria
DR8 -1.01 dB -10.37 dB 4:08 08-Good Morning Little Schoolgirl
DR11 -1.00 dB -14.21 dB 3:58 09-Wasted Years
DR11 -1.01 dB -14.13 dB 3:16 10-The Lonesome Road
DR10 -1.01 dB -12.21 dB 2:54 11-Moody's Mood for Love
DR11 -1.01 dB -12.50 dB 2:40 12-Close Enough for Jazz
DR9 -1.01 dB -12.17 dB 4:24 13-Before the World Was Made
DR12 -1.01 dB -15.06 dB 5:19 14-I'll Take Care of You
DR11 -1.01 dB -15.25 dB 8:09 15-Instrumental / Tell Me What You Want
––––––––––––––––––––––––––––––––––––––––

Number of tracks: 15
Official DR value: DR10

Samplerate: 96000 Hz
Channels: 2
Bits per sample: 24
Bitrate: 2967 kbps
Codec: FLAC
================================================================================


Thanks to the Original customer.