Tags
Language
Tags

Varduhi Yeritsyan - Letters From Armenia (2015) [Official Digital Download 24/96]

Posted By: SERTiL
Varduhi Yeritsyan - Letters From Armenia (2015) [Official Digital Download 24/96]

Varduhi Yeritsyan - Letters From Armenia (2015)
FLAC (tracks) 24-bit/96 kHz | Time - 64:31 minutes | 1.11 GB
Studio Master, Official Digital Download | Artwork: Digital Booklet

'A composer’s mother tongue is the first music he hears; it therefore determines the “genetic inheritance” of the musician’s sound world. The founding father of Armenian art music was Komitas Vardapet. This recording is released in the centenary year of the 1915 genocide. The pieces in this recital may be animated, contemplative, tender, or solemn, but they are very rarely gloomy or woeful. A sort of trust in the future characterises the “Armenian spirit”. Music is synonymous with hope, it is a way of fighting against annihilation, a tool of resistance. As I contemplate my ancestors who vanished a century ago, I would like this recording to bear witness to the faith in justice that has never fled my native land.' (Varduhi Yeritsyan)

Tracklist:

Komitas Vardapet (1869-1935)

01. Toccata 3:18

Aram Ilich Khachaturian (1903-1978)

"Gayaneh" (Excerpt)
02. Noune's Variations 1:34
03. Aishe's Dance 3:05
04. Ouzun - Dara 2:34

Komitas Vardapet

Traditional Armenian Songs
05. Hov areq sarer jan 3:16
06. Tzirani tzar 3:16

Aram Khachaturian

07. Poem for Piano 6:34

Komitas Vardapet

Rustic Songs for Voice and Piano
08. I. Shogher jan 2:37
09. II. Qeler - Tsoler 2:48
10. III. Yerkinqn ampele 1:38
11. IV. Kaqavik 1:06

Aram Khachaturian

12. Dance in B-Flat Major for Violin and Piano 4:47

Komitas Vardapet

13. Three Traditional Armenian Songs for Piano 1:52
14. Four Traditional Armenian Dances for Piano 6:48

Aram Khachaturian

Trio for clarinet, violin and piano
15. I. Andante con dolore 3:57
16. II. Allegro 4:08
17. III. moderato 6:50
18. IV. -/- 4:23

Personnel:
Varduhi Yeritsyan, piano
Lussine Levoni, soprano
Liana Gourdjia, violin
Mariam Adam, clarinet
Araik Bartidikian, duduk

foobar2000 1.3.7 / Dynamic Range Meter 1.1.1
log date: 2018-02-08 12:47:04

––––––––––––––––––––––––––––––––––––––––
Analyzed: Varduhi Yeritsyan, Araik Bartikian / Letters From Armenia: Music by Komitas & Khachaturian (1-2)
Varduhi Yeritsyan, Liana Gourdjia / Letters From Armenia: Music by Komitas & Khachaturian (3-6)
Varduhi Yeritsyan, Lussine Levoni / Letters From Armenia: Music by Komitas & Khachaturian (7-10)
Varduhi Yeritsyan, Mariam Adam, Liana Gourdjia / Letters From Armenia: Music by Komitas & Khachaturian (11-13)
Varduhi Yeritsyan / Letters From Armenia: Music by Komitas & Khachaturian (14-18)
––––––––––––––––––––––––––––––––––––––––

DR Peak RMS Duration Track
––––––––––––––––––––––––––––––––––––––––
DR12 -3.15 dB -19.00 dB 3:16 05-Traditional Armenian Songs: Hov areq sarer jan
DR11 -2.02 dB -17.54 dB 3:17 06-Traditional Armenian Songs: Tzirani tzar
DR11 -1.94 dB -16.96 dB 1:35 02-'Gayaneh' (Excerpt): Noune's Variations
DR11 -1.94 dB -15.98 dB 3:05 03-'Gayaneh' (Excerpt): Aishe's Dance
DR12 -1.94 dB -18.19 dB 2:35 04-'Gayaneh' (Excerpt): Ouzun - Dara
DR12 -1.94 dB -18.06 dB 4:47 12-Dance in B-Flat Major for Violin and Piano
DR13 -2.22 dB -18.68 dB 2:37 08-Rustic Songs for Voice and Piano: I. Shogher jan
DR12 -0.06 dB -17.46 dB 2:49 09-Rustic Songs for Voice and Piano: II. Qeler - Tsoler
DR11 -0.78 dB -16.51 dB 1:38 10-Rustic Songs for Voice and Piano: III. Yerkinqn ampele
DR12 -1.64 dB -16.78 dB 1:06 11-Rustic Songs for Voice and Piano: IV. Kaqavik
DR11 -1.43 dB -16.30 dB 3:57 15-Trio for clarinet, violin and piano: I. Andante con dolore
DR11 -1.43 dB -15.45 dB 4:08 16-Trio for clarinet, violin and piano: II. Allegro
DR11 -1.43 dB -16.15 dB 6:51 17-Trio for clarinet, violin and piano: III. Moderato
DR10 -0.60 dB -14.34 dB 3:18 01-Toccata
DR11 -0.10 dB -15.51 dB 6:34 07-Poem for Piano
DR15 -2.66 dB -24.28 dB 1:52 13-Three Traditional Armenian Songs for Piano
DR13 -2.26 dB -20.07 dB 6:49 14-Four Traditional Armenian Dances for Piano
DR11 -0.10 dB -14.23 dB 4:23 18-Trio for clarinet, violin and piano: IV. -
––––––––––––––––––––––––––––––––––––––––

Number of tracks: 18
Official DR value: DR12

Samplerate: 96000 Hz
Channels: 2
Bits per sample: 24
Bitrate: 2363 kbps
Codec: FLAC
================================================================================


Thanks to the Original customer.