Tags
Language
Tags

Viktor Orri Árnason - Eilífur (2021) [Official Digital Download]

Posted By: pyatak
Viktor Orri Árnason - Eilífur (2021) [Official Digital Download]

Viktor Orri Árnason - Eilífur (2021) [Official Digital Download]
FLAC (tracks) 24-bit/48 kHz | Front Cover | Time - 43:18 minutes | 418 MB
Classical | Label: PENTATONE, Official Digital Download

Eilífur (Eternal) is Icelandic contemporary composer Viktor Orri Árnason’s solo debut and first PENTATONE album, on which the prospect of living forever is contemplated. Sparked by the realisation that medical advances will soon eradicate death by natural causes, Eilífur weaves together a lucid, near-future narrative via a combination of abstract Icelandic lyrics and adept musical storytelling. The scope and scale of Eilífur is reflected in the extremes of its sound, which moves seamlessly from intimate strings and sombre voices to grand orchestral gestures and vast drones. Eilífur explores what life will be like in the absence of death’s ticking clock. Staying clear of the morbidity that such themes may imply, Eilífur is above all a celebration of life as we know it, and an ode to the things that make it worth living.

TRACKLIST

01. Viktor Orri Árnason, Budapest Art Orchestra, Karlakórinn Fóstbræður & Arni Hardarson - Eilífur: I. Var
02. Viktor Orri Árnason, Yair Elazar Glotman & Karlakórinn Fóstbræður - Eilífur: II. The Thread
03. Viktor Orri Árnason, Budapest Art Orchestra & Karlakórinn Fóstbræður - Eilífur: III. Maiden
04. Viktor Orri Árnason, Budapest Art Orchestra, Karlakórinn Fóstbræður & Arni Hardarson - Eilífur: IV. Er
05. Viktor Orri Árnason, Budapest Art Orchestra & Karlakórinn Fóstbræður - Eilífur: V. The Faultline
06. Stefan Baumann - Eilífur: VI. The Vision
07. Viktor Orri Árnason & Budapest Art Orchestra - Eilífur: VII. Nectar
08. Viktor Orri Árnason & Budapest Art Orchestra - Eilífur: VIII. Anima Mundi
09. Viktor Orri Árnason, Budapest Art Orchestra, Karlakórinn Fóstbræður & Arni Hardarson - Eilífur: IX. Var—Er

foobar2000 1.6.2 / Dynamic Range Meter 1.1.1
log date: 2021-06-15 18:11:27

––––––––––––––––––––––––––––––––––––––––
Analyzed: Stefan Baumann / Viktor Orri Árnason: Eilífur (1)
Viktor Orri Árnason & Budapest Art Orchestra / Viktor Orri Árnason: Eilífur (2-3)
Viktor Orri Árnason, Budapest Art Orchestra & Karlakórinn Fóstbræður / Viktor Orri Árnason: Eilífur (4-5)
Viktor Orri Árnason, Budapest Art Orchestra, Karlakórinn Fóstbræður & Arni Hardarson / Viktor Orri Árnason: Eilífur (6-8)
Viktor Orri Árnason, Yair Elazar Glotman & Karlakórinn Fóstbræður / Viktor Orri Árnason: Eilífur (9)
––––––––––––––––––––––––––––––––––––––––

DR Peak RMS Duration Track
––––––––––––––––––––––––––––––––––––––––
DR11 -2.81 dB -17.86 dB 3:38 06-Eilífur: VI. The Vision
DR11 -0.64 dB -17.35 dB 4:01 07-Eilífur: VII. Nectar
DR11 -0.69 dB -16.62 dB 2:53 08-Eilífur: VIII. Anima Mundi
DR11 -0.69 dB -16.67 dB 5:45 03-Eilífur: III. Maiden
DR12 -1.45 dB -19.38 dB 4:14 05-Eilífur: V. The Faultline
DR11 -0.70 dB -17.03 dB 10:49 01-Eilífur: I. Var
DR13 -0.74 dB -20.42 dB 3:48 04-Eilífur: IV. Er
DR10 -0.65 dB -15.59 dB 4:07 09-Eilífur: IX. Var—Er
DR12 -5.50 dB -21.93 dB 4:23 02-Eilífur: II. The Thread
––––––––––––––––––––––––––––––––––––––––

Number of tracks: 9
Official DR value: DR11

Samplerate: 48000 Hz
Channels: 2
Bits per sample: 24
Bitrate: 1241 kbps
Codec: FLAC
================================================================================



Thanks to the Original customer.