Tags
Language
Tags

Vladimir Jurowski - Tchaikovsky: Swan Lake, Op. 22, TH 12 (1877 Version) (2018) [Official Digital Download 24/96]

Posted By: SERTiL
Vladimir Jurowski - Tchaikovsky: Swan Lake, Op. 22, TH 12 (1877 Version) (2018) [Official Digital Download 24/96]

Vladimir Jurowski - Tchaikovsky: Swan Lake, Op. 22, TH 12 (1877 Version) (2018)
FLAC (tracks) 24-bit/96 kHz | Time - 151:13 minutes | 2.48 GB
Studio Master, Official Digital Download | Artwork: Digital Booklet

Swan Lake is the first of the three great ballets that Tchaikovsky wrote, and arguably the most famous. The piece is mainly known in the shape it obtained in 1895, when it became a classic in the choreography of Marius Petipa and Lev Ivanov. That “imperial” version strayed from Tchaikovsky’s world premiere score, with several cuts, abridgements and displacements. This high definition recording presents the work as it was heard during the 1877 world premiere performance, highlighting the extraordinary symphonic qualities of Tchaikovsky's original conception.

Swan Lake is performed by the State Academic Symphony Orchestra of Russia “Evgeny Svetlanov” led by its Artistic Director Vladimir Jurowski. Jurowski has recorded extensively for PENTATONE and has received enthusiastic critical acclaim. In July 2017, he signed a long-term, multi-album agreement with PENTATONE including a new complete cycle of the symphonies of Sergei Prokofiev with the State Academic Symphony Orchestra of Russia “Evgeny Svetlanov”. Other releases by Jurowski for PENTATONE include violin concertos by Britten and Hindemith with Arabella Steinbacher, and tone poems by Mahler and Strauss, performed with the Rundfunk- Sinfonieorchester Berlin where he is Chief Conductor and Artistic Director.

Tracklist:

CD1
01. Swan Lake, Op. 20, TH 12 (1877 Version): Introduction
02. Swan Lake, Op. 20, TH 12, Act I (1877 Version): No. 1, Scène. Allegro giusto
03. Swan Lake, Op. 20, TH 12, Act I (1877 Version): No. 2, Valse
04. Swan Lake, Op. 20, TH 12, Act I (1877 Version): No. 3, Scène. Allegro moderato
05. Swan Lake, Op. 20, TH 12, Act I (1877 Version): No. 4a, Pas de trois. I. Intrada. Allegro
06. Swan Lake, Op. 20, TH 12, Act I (1877 Version): No. 4b, Pas de trois. II. Andante sostenuto
07. Swan Lake, Op. 20, TH 12, Act I (1877 Version): No. 4c, Pas de trois. III. Allegro semplice
08. Swan Lake, Op. 20, TH 12, Act I (1877 Version): No. 4d, Pas de trois. IV. Moderato
09. Swan Lake, Op. 20, TH 12, Act I (1877 Version): No. 4e, Pas de trois. V. Allegro
10. Swan Lake, Op. 20, TH 12, Act I (1877 Version): No. 4f, Pas de trois. VI. Coda. Allegro vivace
11. Swan Lake, Op. 20, TH 12, Act I (1877 Version): No. 5a, Pas de deux. I. Tempo di valse ma non troppo vivo, quasi moderato
12. Swan Lake, Op. 20, TH 12, Act I (1877 Version): No. 5b, Pas de deux. II. Andante
13. Swan Lake, Op. 20, TH 12, Act I (1877 Version): No. 5c, Pas de deux. III. Tempo di valse
14. Swan Lake, Op. 20, TH 12, Act I (1877 Version): No. 5d, Pas de deux. IV. Coda. Allegro molto vivace
15. Swan Lake, Op. 20, TH 12, Act I (1877 Version): No. 6, Pas d'action. Andatino quasi moderato
16. Swan Lake, Op. 20, TH 12, Act I (1877 Version): No. 7, Sujet
17. Swan Lake, Op. 20, TH 12, Act I (1877 Version): No. 8, Danse des coupes. Tempo di polacca
18. Swan Lake, Op. 20, TH 12, Act I (1877 Version): No. 9, Finale. Andante
19. Swan Lake, Op. 20, TH 12, Act II (1877 Version): No. 10, Scène. Moderato
20. Swan Lake, Op. 20, TH 12, Act II (1877 Version): No. 11, Scène. Allegro moderato
21. Swan Lake, Op. 20, TH 12, Act II (1877 Version): No. 12, Scène. Allegro
22. Swan Lake, Op. 20, TH 12, Act II (1877 Version): No. 13a, Danses des cygnes. I. Tempo di valse
23. Swan Lake, Op. 20, TH 12, Act II (1877 Version): No. 13b, Danses des cygnes. II. Moderato assai
24. Swan Lake, Op. 20, TH 12, Act II (1877 Version): No. 13c, Danses des cygnes. III. Tempo di valse
25. Swan Lake, Op. 20, TH 12, Act II (1877 Version): No. 13d, Danses des cygnes. IV. Allegro moderato

CD2
01. Swan Lake, Op. 20, TH 12, Act II (1877 Version): No. 13e, Danses des cygnes. V. Pas d'action. Andante
02. Swan Lake, Op. 20, TH 12, Act II (1877 Version): No. 13f, Danses des cygnes. VI. Tempo di valse
03. Swan Lake, Op. 20, TH 12, Act II (1877 Version): No. 13g, Danses des cygnes. VII. Coda. Allegro vivo
04. Swan Lake, Op. 20, TH 12, Act II (1877 Version): No. 14, Scène. Moderato
05. Swan Lake, Op. 20, TH 12, Act III (1877 Version): No. 15, Allegro giusto
06. Swan Lake, Op. 20, TH 12, Act III (1877 Version): No. 16, Danses du corps de ballet et des nains
07. Swan Lake, Op. 20, TH 12, Act III (1877 Version): No. 17, Scène. La sortie des invités et la valse
08. Swan Lake, Op. 20, TH 12, Act III (1877 Version): No. 18, Scène. Allegro
09. Swan Lake, Op. 20, TH 12, Act III (1877 Version): No. 19a, Pas de six. Intrada. Moderato assai
10. Swan Lake, Op. 20, TH 12, Act III (1877 Version): No. 19b, Pas de six. Var. 1, Allegro
11. Swan Lake, Op. 20, TH 12, Act III (1877 Version): No. 19c, Pas de six. Var. 2, Andante con moto
12. Swan Lake, Op. 20, TH 12, Act III (1877 Version): No. 19d, Pas de six. Var. 3, Moderato
13. Swan Lake, Op. 20, TH 12, Act III (1877 Version): No. 19e, Pas de six. Var. 4, Allegro
14. Swan Lake, Op. 20, TH 12, Act III (1877 Version): No. 19f, Pas de six. Var. 5, Moderato
15. Swan Lake, Op. 20, TH 12, Act III (1877 Version): No. 19g, Pas de six. Coda. Allegro molto
16. Swan Lake, Op. 20, TH 12, Act III (1877 Version): No. 20a, Danse hongroise
17. Swan Lake, Op. 20, TH 12, Act III (1877 Version): No. 20b, Danse russe pour Mlle. Pelageya Karpakova
18. Swan Lake, Op. 20, TH 12, Act III (1877 Version): No. 21, Danse espagnole
19. Swan Lake, Op. 20, TH 12, Act III (1877 Version): No. 22, Danse napolitaine
20. Swan Lake, Op. 20, TH 12, Act III (1877 Version): No. 23, Mazurka
21. Swan Lake, Op. 20, TH 12, Act III (1877 Version): No. 24, Scène. Allegro
22. Swan Lake, Op. 20, TH 12, Act IV (1877 Version): No. 25, Entr'acte. Moderato
23. Swan Lake, Op. 20, TH 12, Act IV (1877 Version): No. 26, Scène. Allegro non troppo
24. Swan Lake, Op. 20, TH 12, Act IV (1877 Version): No. 27, Danses des petits cygnes
25. Swan Lake, Op. 20, TH 12, Act IV (1877 Version): No. 28, Scène. Allegro agitato
26. Swan Lake, Op. 20, TH 12, Act IV (1877 Version): No. 29, Finale. Andante

Personnel:
State Academic Symphony Orchestra of Russia “Evgeny Svetlanov”
Vladimir Jurowski, conductor

foobar2000 1.3.7 / Dynamic Range Meter 1.1.1
log date: 2018-11-05 18:13:38

––––––––––––––––––––––––––––––––––––––––
Analyzed: State Academic Symphony Orchestra of Russia "Evgeny Svetlanov" / Tchaikovsky: Swan Lake, Op. 22, TH 12 (1877 Version)
––––––––––––––––––––––––––––––––––––––––

DR Peak RMS Duration Track
––––––––––––––––––––––––––––––––––––––––
DR14 -1.33 dB -23.50 dB 2:43 01-Swan Lake, Op. 20, TH 12 (1877 Version) : Introduction
DR13 -6.11 dB -23.42 dB 3:07 02-Swan Lake, Op. 20, TH 12, Act I (1877 Version) : Act I: No. 1. Scene
DR13 -0.36 dB -20.34 dB 7:28 03-Swan Lake, Op. 20, TH 12, Act I (1877 Version) : Act I: No. 2. Waltz
DR15 -2.37 dB -26.23 dB 4:00 04-Swan Lake, Op. 20, TH 12, Act I (1877 Version) : Act I: No. 3. Scene
DR11 -17.11 dB -33.09 dB 2:19 05-Swan Lake, Op. 20, TH 12, Act I (1877 Version) : Act I: No. 4. Pas de trois: I. Intrada
DR12 -14.47 dB -34.22 dB 2:54 06-Swan Lake, Op. 20, TH 12, Act I (1877 Version) : Act I: No. 4. Pas de trois: II. Andante sostenuto
DR15 -5.88 dB -27.93 dB 1:16 07-Swan Lake, Op. 20, TH 12, Act I (1877 Version) : Act I: No. 4. Pas de trois: III. Allegro semplice - Presto
DR13 -7.51 dB -23.36 dB 1:29 08-Swan Lake, Op. 20, TH 12, Act I (1877 Version) : Act I: No. 4. Pas de trois: IV. Moderato
DR12 -11.21 dB -30.09 dB 1:07 09-Swan Lake, Op. 20, TH 12, Act I (1877 Version) : Act I: No. 4. Pas de trois: V. Allegro
DR13 -1.43 dB -20.57 dB 1:48 10-Swan Lake, Op. 20, TH 12, Act I (1877 Version) : Act I: No. 4. Pas de trois: VI. Coda
DR13 -6.65 dB -25.80 dB 2:35 11-Swan Lake, Op. 20, TH 12, Act I (1877 Version) : Act I: No. 5. Pas de deux: I. Tempo di valse ma non troppo vivo, quasi moderato
DR19 -9.65 dB -35.70 dB 5:10 12-Swan Lake, Op. 20, TH 12, Act I (1877 Version) : Act I: No. 5. Pas de deux: II. Andante - Allegro
DR11 -13.48 dB -31.28 dB 1:39 13-Swan Lake, Op. 20, TH 12, Act I (1877 Version) : Act I: No. 5. Pas de deux: III. Tempo di valse
DR14 -3.98 dB -20.87 dB 1:54 14-Swan Lake, Op. 20, TH 12, Act I (1877 Version) : Act I: No. 5. Pas de deux: IV. Coda
DR15 -5.81 dB -28.82 dB 2:13 15-Swan Lake, Op. 20, TH 12, Act I (1877 Version) : Act I: No. 6. Pas d'action
DR10 -24.29 dB -39.88 dB 0:41 16-Swan Lake, Op. 20, TH 12, Act I (1877 Version) : Act I: No. 7. Sujet
DR15 -4.09 dB -22.98 dB 6:19 17-Swan Lake, Op. 20, TH 12, Act I (1877 Version) : Act I: No. 8. Dance of the goblets
DR12 -4.70 dB -23.58 dB 2:36 18-Swan Lake, Op. 20, TH 12, Act I (1877 Version) : Act I: No. 9. Finale
DR13 -4.49 dB -22.61 dB 2:43 19-Swan Lake, Op. 20, TH 12, Act II (1877 Version) : Act II: No. 10. Scene
DR14 -5.96 dB -25.72 dB 5:37 20-Swan Lake, Op. 20, TH 12, Act II (1877 Version) : Act II: No. 11. Scene
DR12 -8.33 dB -26.77 dB 4:05 21-Swan Lake, Op. 20, TH 12, Act II (1877 Version) : Act II: No. 12. Scene
DR12 -10.26 dB -31.52 dB 2:39 22-Swan Lake, Op. 20, TH 12, Act II (1877 Version) : Act II: No. 13. Dances of the swans: I. Tempo di valse
DR14 -9.83 dB -30.52 dB 2:03 23-Swan Lake, Op. 20, TH 12, Act II (1877 Version) : Act II: No. 13. Dances of the swans: II. Moderato assai
DR11 -15.77 dB -32.20 dB 2:04 24-Swan Lake, Op. 20, TH 12, Act II (1877 Version) : Act II: No. 13. Dances of the swans: III. Tempo di valse
DR8 -9.45 dB -36.02 dB 1:24 25-Swan Lake, Op. 20, TH 12, Act II (1877 Version) : Act II: No. 13. Dances of the swans: IV. Allegro moderato
DR19 -8.40 dB -34.35 dB 7:16 26-Swan Lake, Op. 20, TH 12, Act II (1877 Version) : Act II: No. 13. Dances of the swans: V. Andante - Allegro
DR12 -8.61 dB -24.40 dB 1:46 27-Swan Lake, Op. 20, TH 12, Act II (1877 Version) : Act II: No. 13. Dances of the swans: VI. Tempo di valse
DR15 -4.25 dB -23.21 dB 1:43 28-Swan Lake, Op. 20, TH 12, Act II (1877 Version) : Act II: No. 13. Dances of the swans: VII. Coda
DR13 -1.79 dB -23.35 dB 2:49 29-Swan Lake, Op. 20, TH 12, Act II (1877 Version) : Act II: No. 14. Scene
DR15 -1.83 dB -22.57 dB 2:33 30-Swan Lake, Op. 20, TH 12, Act III (1877 Version) : Act III: No. 15. Allegro giusto
DR14 -3.83 dB -23.92 dB 2:37 31-Swan Lake, Op. 20, TH 12, Act III (1877 Version) : Act III: No. 16. Dance of the corps de ballet and the dwarves
DR15 -5.18 dB -28.79 dB 7:47 32-Swan Lake, Op. 20, TH 12, Act III (1877 Version) : Act III: No. 17. Scene
DR16 -4.96 dB -25.84 dB 1:46 33-Swan Lake, Op. 20, TH 12, Act III (1877 Version) : Act III: No. 18. Scene
DR16 -7.18 dB -30.87 dB 3:10 34-Swan Lake, Op. 20, TH 12, Act III (1877 Version) : Act III: No. 19. Pas de six: Intrada
DR15 -9.61 dB -31.33 dB 1:31 35-Swan Lake, Op. 20, TH 12, Act III (1877 Version) : Act III: No. 19. Pas de six: Variation I
DR14 -5.54 dB -27.41 dB 3:27 36-Swan Lake, Op. 20, TH 12, Act III (1877 Version) : Act III: No. 19. Pas de six: Variation II
DR16 -7.94 dB -31.81 dB 1:10 37-Swan Lake, Op. 20, TH 12, Act III (1877 Version) : Act III: No. 19. Pas de six: Variation III
DR13 -5.84 dB -22.93 dB 0:55 38-Swan Lake, Op. 20, TH 12, Act III (1877 Version) : Act III: No. 19. Pas de six: Variation IV
DR13 -6.44 dB -27.04 dB 1:29 39-Swan Lake, Op. 20, TH 12, Act III (1877 Version) : Act III: No. 19. Pas de six: Variation V
DR13 -3.11 dB -21.58 dB 1:48 40-Swan Lake, Op. 20, TH 12, Act III (1877 Version) : Act III: No. 19. Pas de six: Coda
DR14 -4.33 dB -25.31 dB 2:53 41-Swan Lake, Op. 20, TH 12, Act III (1877 Version) : Act III: No. 20. Hungarian Dance
DR16 -4.03 dB -30.48 dB 4:42 42-Swan Lake, Op. 20, TH 12, Act III (1877 Version) : Act III: No. 20a. Russian Dance
DR15 -8.07 dB -28.35 dB 2:43 43-Swan Lake, Op. 20, TH 12, Act III (1877 Version) : Act III: No. 21. Spanish Dance
DR14 -4.54 dB -24.91 dB 2:01 44-Swan Lake, Op. 20, TH 12, Act III (1877 Version) : Act III: No. 22. Neapolitan Dance
DR13 -5.41 dB -23.01 dB 4:04 45-Swan Lake, Op. 20, TH 12, Act III (1877 Version) : Act III: No. 23. Mazurka
DR13 -3.10 dB -22.61 dB 3:50 46-Swan Lake, Op. 20, TH 12, Act III (1877 Version) : Act III: No. 24. Scene
DR17 -6.54 dB -31.90 dB 2:10 47-Swan Lake, Op. 20, TH 12, Act IV (1877 Version) : Act IV: No. 25. Entr'acte
DR13 -8.42 dB -28.89 dB 2:23 48-Swan Lake, Op. 20, TH 12, Act IV (1877 Version) : Act IV: No. 26. Scene
DR16 -6.86 dB -32.81 dB 4:05 49-Swan Lake, Op. 20, TH 12, Act IV (1877 Version) : Act IV: No. 27. Dance of the little swans
DR15 -1.11 dB -23.80 dB 3:14 50-Swan Lake, Op. 20, TH 12, Act IV (1877 Version) : Act IV: No. 28. Scene
DR14 -0.28 dB -20.14 dB 5:55 51-Swan Lake, Op. 20, TH 12, Act IV (1877 Version) : Act IV: No. 29. Finale
––––––––––––––––––––––––––––––––––––––––

Number of tracks: 51
Official DR value: DR14

Samplerate: 96000 Hz
Channels: 2
Bits per sample: 24
Bitrate: 2602 kbps
Codec: FLAC
================================================================================


Thanks to the Original customer.