Tags
Language
Tags

Volker Hartung - Rachmaninoff - Piano Concerto No. 2 in C Minor, Op. 18 (2021) [Official Digital Download]

Posted By:
Volker Hartung - Rachmaninoff - Piano Concerto No. 2 in C Minor, Op. 18 (2021) [Official Digital Download]

Volker Hartung - Rachmaninoff - Piano Concerto No. 2 in C Minor, Op. 18 (2021) [Official Digital Download]
FLAC (tracks) 24-bit/48 kHz | Front Cover | Time - 55:25 minutes | 562 MB
Classical | Label: JPK Musik, Official Digital Download

As the last of the great Romantic symphonic composers, Rachmaninoff represents the bridge between 19th-century romanticism and modern times. His fabulous orchestrations generate lush sonorities and grandeur, in a style of overwhelming expression that fascinates the listener to this day. His 2nd piano concerto is a musical psychodrama, as the young composer describes the healing of profound mental depression.

This album contains three magnificent works by Russian composer Sergej Rachmaninoff.

Volker Hartung and fabulous pianist Stanislav Soloviev gave a brilliant performance of Rachmaninoff’s 2nd piano concerto. They recorded in St. Petersbourg with her great Philharmonic Orchestra.

Back in Germany Hartung recorded the composer's own arrangement of 'Vocalise for Orchestra' with the Cologne New Philharmonic. He also arranged Romance and Scherzo of the superb 1st string quartet for string orchestra, which the 17-year Rachmaninoff wrote as a student in 1890.

TRACKLIST

01. Stanislav Soloviev, St. Petersburg Philharmonic Orchestra & Volker Hartung - Piano Concerto No. 2 in C Minor, Op. 18: I. Moderato
02. Stanislav Soloviev, St. Petersburg Philharmonic Orchestra & Volker Hartung - Piano Concerto No. 2 in C Minor, Op. 18: II. Adagio sostenuto
03. Stanislav Soloviev, St. Petersburg Philharmonic Orchestra & Volker Hartung - Piano Concerto No. 2 in C Minor, Op. 18: III. Allegro scherzando
04. Cologne New Philharmonic Orchestra & Volker Hartung - 14 Romances, Op. 34: No. 14, Vocalise (Orchestral Version)
05. Cologne New Philharmonic Orchestra & Volker Hartung - String Quartet No. 1, TH ii/30 (Arr. V. Hartung for String Orchestra): I. Romance. Andante espressivo
06. Cologne New Philharmonic Orchestra & Volker Hartung - String Quartet No. 1, TH ii/30 (Arr. V. Hartung for String Orchestra): II. Scherzo. Allegro

foobar2000 1.6.2 / Dynamic Range Meter 1.1.1
log date: 2021-10-13 16:57:53

––––––––––––––––––––––––––––––––––––––––
Analyzed: Cologne New Philharmonic Orchestra & Volker Hartung / Rachmaninoff: Orchestral Works (1-3)
Stanislav Soloviev, St. Petersburg Philharmonic Orchestra & Volker Hartung / Rachmaninoff: Orchestral Works (4-6)
––––––––––––––––––––––––––––––––––––––––

DR Peak RMS Duration Track
––––––––––––––––––––––––––––––––––––––––
DR11 0.00 dB -16.87 dB 7:15 04-14 Romances, Op. 34: No. 14, Vocalise (Orchestral Version)
DR13 -0.80 dB -19.75 dB 7:30 05-String Quartet No. 1, TH ii/30 (Arr. V. Hartung for String Orchestra): I. Romance. Andante espressivo
DR12 0.00 dB -15.32 dB 5:15 06-String Quartet No. 1, TH ii/30 (Arr. V. Hartung for String Orchestra): II. Scherzo. Allegro
DR11 0.00 dB -15.68 dB 10:46 01-Piano Concerto No. 2 in C Minor, Op. 18: I. Moderato
DR13 0.00 dB -18.85 dB 12:25 02-Piano Concerto No. 2 in C Minor, Op. 18: II. Adagio sostenuto
DR12 0.00 dB -16.96 dB 12:16 03-Piano Concerto No. 2 in C Minor, Op. 18: III. Allegro scherzando
––––––––––––––––––––––––––––––––––––––––

Number of tracks: 6
Official DR value: DR12

Samplerate: 48000 Hz
Channels: 2
Bits per sample: 24
Bitrate: 1405 kbps
Codec: FLAC
================================================================================



Thanks to the Original customer.